↑↓torrent.by
Поиск
Логин:  Регистрация
Пароль:

Бездна / The Abyss (1989) HybridRip 1080p от DoMiNo | P, A | Special Edition | Open Matte

download Скачать торрент-файл   magnet Магнитная ссылка Размер: 18.76 GB Добавлен: 2024-03-19 05:00
Пиры будут получены из сети DHT
Последний сидер был замечен 2024-03-19 16:36
Информация о фильме Название: Бездна Оригинальное название: The Abyss Год выхода: 1989 Жанр: фантастика, триллер, драма, приключения Режиссер: Джеймс Кэмерон В ролях: Эд Харрис, Мэри Элизабет Мастрантонио, Майкл Бин, Лео Бёрместер, Тодд Графф, Джон Бедфорд Ллойд, Дж. К. Куин, Кимберли Скотт, Капитан Кидд Брюер мл., Джордж Роберт Клек О фильме: Атомная подводная лодка «Монтана» ВМФ США с ядерным оружием на борту терпит крушение на огромной глубине. Министерство флота просит помощи у специалистов подводной исследовательской станции, работающей неподалеку от места аварии субмарины. При поддержке четырех военных разведчиков исследователи должны выяснить возможную причину трагедии и нейтрализовать ядерные боеголовки. Но в океанской бездне им предстоит столкнуться с неведомым… Страна: США Студия: Twentieth Century Fox Film Corporation, Pacific Western, Lightstorm Entertainment Продолжительность: 02:50:53 Перевод: Профессиональный (многоголосый, закадровый) X3 Субтитры: Russian, English Файл Формат: Matroska Качество: HybridRip 1080p Видео: 1920x1080 (16:9) at 23.976 fps, x264@L4.1, ~12555 kbps, 0.253 bpp Аудио 1: AC3, 6 ch, ~448 kbps - | Русский | - MVO Киномания со вставками НТВ+ Аудио 2: AC3, 2 ch, ~224 kbps - | Русский | - MVO НТВ+ Аудио 3: AC3, 2 ch, ~224 kbps - | Русский | - MVO Лазер Видео Аудио 4: AC3, 6 ch, ~448 kbps - | Русский | - AVO Ю. Сербин Аудио 5: AC3, 6 ch, ~448 kbps - | Русский | - AVO А. Гаврилов Аудио 6: AC3, 6 ch, ~448 kbps - | Русский | - AVO Ю. Живов Аудио 7: AC3, 2 ch, ~224 kbps - | Русский | - VO Atomik Home Video Аудио 8: AC3, 2 ch, ~256 kbps - | Русский | - AVO Ю. Живов (ранний) Аудио 9: AC3, 6 ch, ~448 kbps - | Английский | ***Релиз от: -=DoMiNo=-
[+] M/Ix264 : frame I:1262 Avg QP:16.62 size:191340 x264 : frame P:54370 Avg QP:18.90 size:117107 x264 : frame B:190198 Avg QP:21.08 size: 49783 x264 : consecutive B-frames: 2.4% 3.7% 5.7% 19.0% 14.1% 47.6% 3.8% 2.1% 1.3% 0.3% General Format : Matroska Format version : Version 4 File size : 18.8 GiB Duration : 2 h 50 min Overall bit rate : 15.7 Mb/s Movie name : Бездна.(1989).BDRip.x264.1080p. Encoded date : UTC 2021-05-25 18:43:15 Writing application : mkvmerge v57.0.0 ('Till The End') 64-bit Writing library : libebml v1.4.2 + libmatroska v1.6.4 Cover : Yes Attachments : Cover.png / Cover 2.jpg Video ID : 1 Format : AVC Format/Info : Advanced Video Codec Format profile : High@L4.1 Format settings : CABAC / 4 Ref Frames Format settings, CABAC : Yes Format settings, Reference : 4 frames Codec ID : V_MPEG4/ISO/AVC Duration : 2 h 50 min Bit rate : 12.6 Mb/s Width : 1 920 pixels Height : 1 080 pixels Display aspect ratio : 16:9 Frame rate mode : Constant Frame rate : 23.976 (24000/1001) FPS Color space : YUV Chroma subsampling : 4:2:0 Bit depth : 8 bits Scan type : Progressive Bits/(Pixel*Frame) : 0.253 Stream size : 15.0 GiB (80%) Title : -=DoMiNo=- Writing library : x264 core 163 r3059 b684ebe Encoding settings : cabac=1 / ref=4 / deblock=1:-2:-2 / analyse=0x3:0x133 / me=umh / subme=10 / psy=1 / psy_rd=1.00:0.00 / mixed_ref=1 / me_range=48 / chroma_me=1 / trellis=2 / 8x8dct=1 / cqm=0 / deadzone=21,11 / fast_pskip=0 / chroma_qp_offset=-2 / threads=24 / lookahead_threads=4 / sliced_threads=0 / nr=0 / decimate=0 / interlaced=0 / bluray_compat=0 / constrained_intra=0 / bframes=9 / b_pyramid=2 / b_adapt=2 / b_bias=0 / direct=3 / weightb=1 / open_gop=0 / weightp=2 / keyint=250 / keyint_min=23 / scenecut=40 / intra_refresh=0 / rc_lookahead=60 / rc=2pass / mbtree=0 / bitrate=12555 / ratetol=1.0 / qcomp=0.75 / qpmin=0 / qpmax=69 / qpstep=4 / cplxblur=20.0 / qblur=0.5 / vbv_maxrate=50000 / vbv_bufsize=62500 / nal_hrd=none / filler=0 / ip_ratio=1.40 / pb_ratio=1.30 / aq=3:0.80 Language : English Default : Yes Forced : No Color range : Limited Color primaries : BT.709 Transfer characteristics : BT.709 Matrix coefficients : BT.709 Audio #1 ID : 2 Format : AC-3 Format/Info : Audio Coding 3 Commercial name : Dolby Digital Codec ID : A_AC3 Duration : 2 h 50 min Bit rate mode : Constant Bit rate : 448 kb/s Channel(s) : 6 channels Channel layout : L R C LFE Ls Rs Sampling rate : 48.0 kHz Frame rate : 31.250 FPS (1536 SPF) Compression mode : Lossy Stream size : 548 MiB (3%) Title : MVO Kinomania Language : Russian Service kind : Complete Main Default : No Forced : No Audio #2 ID : 3 Format : AC-3 Format/Info : Audio Coding 3 Commercial name : Dolby Digital Format settings : Dolby Surround Codec ID : A_AC3 Duration : 2 h 50 min Bit rate mode : Constant Bit rate : 224 kb/s Channel(s) : 2 channels Channel layout : L R Sampling rate : 48.0 kHz Frame rate : 31.250 FPS (1536 SPF) Compression mode : Lossy Stream size : 274 MiB (1%) Title : MVO NTV Plus Language : Russian Service kind : Complete Main Default : Yes Forced : No Audio #3 ID : 4 Format : AC-3 Format/Info : Audio Coding 3 Commercial name : Dolby Digital Codec ID : A_AC3 Duration : 2 h 50 min Bit rate mode : Constant Bit rate : 224 kb/s Channel(s) : 2 channels Channel layout : L R Sampling rate : 48.0 kHz Frame rate : 31.250 FPS (1536 SPF) Compression mode : Lossy Stream size : 274 MiB (1%) Title : MVO Lazer video Language : Russian Service kind : Complete Main Default : No Forced : No Audio #4 ID : 5 Format : AC-3 Format/Info : Audio Coding 3 Commercial name : Dolby Digital Codec ID : A_AC3 Duration : 2 h 50 min Bit rate mode : Constant Bit rate : 448 kb/s Channel(s) : 6 channels Channel layout : L R C LFE Ls Rs Sampling rate : 48.0 kHz Frame rate : 31.250 FPS (1536 SPF) Compression mode : Lossy Stream size : 548 MiB (3%) Title : AVO Serbin Language : Russian Service kind : Complete Main Default : No Forced : No Audio #5 ID : 6 Format : AC-3 Format/Info : Audio Coding 3 Commercial name : Dolby Digital Codec ID : A_AC3 Duration : 2 h 50 min Bit rate mode : Constant Bit rate : 448 kb/s Channel(s) : 6 channels Channel layout : L R C LFE Ls Rs Sampling rate : 48.0 kHz Frame rate : 31.250 FPS (1536 SPF) Compression mode : Lossy Stream size : 548 MiB (3%) Title : AVO Gavrilov Language : Russian Service kind : Complete Main Default : No Forced : No Audio #6 ID : 7 Format : AC-3 Format/Info : Audio Coding 3 Commercial name : Dolby Digital Codec ID : A_AC3 Duration : 2 h 50 min Bit rate mode : Constant Bit rate : 448 kb/s Channel(s) : 6 channels Channel layout : L R C LFE Ls Rs Sampling rate : 48.0 kHz Frame rate : 31.250 FPS (1536 SPF) Compression mode : Lossy Stream size : 548 MiB (3%) Title : AVO Zhivov #2 Language : Russian Service kind : Complete Main Default : No Forced : No Audio #7 ID : 8 Format : AC-3 Format/Info : Audio Coding 3 Commercial name : Dolby Digital Codec ID : A_AC3 Duration : 2 h 50 min Bit rate mode : Constant Bit rate : 224 kb/s Channel(s) : 2 channels Channel layout : L R Sampling rate : 48.0 kHz Frame rate : 31.250 FPS (1536 SPF) Compression mode : Lossy Stream size : 274 MiB (1%) Title : VO Atomik Home Video Language : Russian Service kind : Complete Main Default : No Forced : No Audio #8 ID : 9 Format : AC-3 Format/Info : Audio Coding 3 Commercial name : Dolby Digital Format settings : Dolby Surround Codec ID : A_AC3 Duration : 2 h 50 min Bit rate mode : Constant Bit rate : 256 kb/s Channel(s) : 2 channels Channel layout : L R Sampling rate : 48.0 kHz Frame rate : 31.250 FPS (1536 SPF) Compression mode : Lossy Stream size : 313 MiB (2%) Title : VO Zhivov #1 Language : Russian Service kind : Complete Main Default : No Forced : No Audio #9 ID : 10 Format : AC-3 Format/Info : Audio Coding 3 Commercial name : Dolby Digital Codec ID : A_AC3 Duration : 2 h 50 min Bit rate mode : Constant Bit rate : 448 kb/s Channel(s) : 6 channels Channel layout : L R C LFE Ls Rs Sampling rate : 48.0 kHz Frame rate : 31.250 FPS (1536 SPF) Compression mode : Lossy Stream size : 548 MiB (3%) Language : English Service kind : Complete Main Default : No Forced : No Text #1 ID : 11 Format : UTF-8 Codec ID : S_TEXT/UTF8 Codec ID/Info : UTF-8 Plain Text Duration : 2 h 43 min Bit rate : 78 b/s Count of elements : 1588 Stream size : 93.3 KiB (0%) Language : Russian Default : No Forced : No Text #2 ID : 12 Format : UTF-8 Codec ID : S_TEXT/UTF8 Codec ID/Info : UTF-8 Plain Text Duration : 2 h 42 min Bit rate : 52 b/s Count of elements : 1752 Stream size : 63.1 KiB (0%) Language : English Default : No Forced : No
[+] Примечания:Open Matte-версия фильма имеет большее наполнение кадра.
[+] Скриншоты

Всего файлов в раздаче: 1 
Бездна.(1989).BDRip.x264.1080p.[-=DoMiNo=-].mkv18.76 GB

Похожие раздачи по запросу - Бездна
2024-03-19 magnet Бездна / The Abyss (1989) HybridRip-AVC от DoMiNo | P | Special Edition | Open Matte 5.35 GB ↑ 0 ↓ 0
2023-10-16 magnet Мег 2: Бездна / Meg 2: The Trench (2023) BDRip-AVC от DoMiNo & селезень | D, P, A 3.42 GB ↑ 0 ↓ 0
2023-10-16 magnet Мег 2: Бездна / Meg 2: The Trench (2023) HDRip от ELEKTRI4KA | D 1.46 GB ↑ 0 ↓ 0
2023-10-15 magnet Мег 2: Бездна / Meg 2: The Trench (2023) BDRip 720p от селезень | D, P, A 6.24 GB ↑ 0 ↓ 0
2023-10-01 magnet Мег 2: Бездна / Meg 2: The Trench (2023) WEB-DL 1080p от Scarabey | D | Red Head Sound 6.81 GB ↑ 0 ↓ 0
2023-08-28 magnet Мег 2: Бездна / Meg 2: The Trench (2023) WEB-DLRip от New-Team | TVShows 1.46 GB ↑ 0 ↓ 0

Комментарии

nova111p
Все дорожки ужасного качества. Еле досмотрел фильм с первой озвучкой. А так, то звук глухой как из бочки, то голоса глухие а посторонние звуки громкие, то кроме русской речи ничего больше не слышно...


Зарегистрируйтесь чтобы добавить комментарий
Торрент клиент
byTorrent - программа для загрузки торрент-файлов.

Скачать byTorrent.exe (1,5 МБ)

Скачать byTorrent.zip (0,6 МБ)

Поддержи torrent.by
российских рублей
(300 российских рублей это 4$)

Обратная связь rss

End game ©