↑↓torrent.by
Поиск
Логин:  Регистрация
Пароль:

Легенда о пианисте / La leggenda del pianista sull'oceano / The Legend of 1900 (1998) UHD BDRemux 2160p от селезень | 4K | HDR | Dolby Vision Profile 8 | D | Театральная версия

download Скачать торрент-файл   magnet Магнитная ссылка Размер: 52.55 GB Добавлен: 2024-03-19 11:00
Пиры будут получены из сети DHT
Последний сидер был замечен 2024-04-09 14:07
Информация о фильме Название: Легенда о пианисте Оригинальное название: La leggenda del pianista sull'oceano / The Legend of 1900 Год выхода: 1998 Жанр: драма, мелодрама, музыка Режиссер: Джузеппе Торнаторе В ролях: Тим Рот, Прюитт Тэйлор Винс, Мелани Тьерри, Билл Нанн, Кларенс Уильямс III, Питер Вон, Ниал О'Брайэн, Альберто Васкес, Габриэле Лавиа, Джон Армстед О фильме: В первый день XX века на пароходе «Вирджиния» в коробке из-под лимонов был найден младенец. Мальчик рос и проводил свою жизнь на громадном океанском лайнере, курсировавшем между Америкой и Европой, и он ни разу не сходил на берег. Загадочным образом научившись играть на рояле, Дэнни Будманн Т.Д. Лемон 1900-й стал настоящим виртуозом и развлекал публику, играя в ресторанном оркестре. С ним связаны удивительные истории, а его жизнь превратилась в легенду. Страна: Италия Студия: Medusa Produzione, Sciarlò Продолжительность: 02:00:45 Перевод: Дублированный Качество: BDRemux 2160p Видео: 3840x2160 at 24.000 fps, MPEG-H HEVC HDR Video, 58200 kbps avg Аудио #01: 48 kHz, AC3, 5.1, 448 Kbps | Дублированный | RUS | Аудио #02: 48 kHz, DTS-HD MA, 5.1, 3658 Kbps | Оригинал | ENG | Субтитры: Английские
[+] MIGeneral Unique ID : 9504454910568950482576580349986295691 (0x7267DCE785B0E6B8B338FBAB96F4F8B) Complete name : 192.168.1.233DownloadThe.Legend.of.1900.1998.BDREMUX.2160p.HDR.DVP8.seleZen.mkv Format : Matroska Format version : Version 4 File size : 52.5 GiB Duration : 2 h 0 min Overall bit rate mode : Variable Overall bit rate : 62.3 Mb/s Frame rate : 24.000 FPS Movie name : Leggenda del pianista sull'oceano, La a.k.a The Legend of 1900 1998 from seleZen Encoded date : 2023-05-30 21:13:24 UTC Writing application : mkvmerge v59.0.0 ('Shining Star') 64-bit Writing library : libebml v1.4.2 + libmatroska v1.6.4 Video ID : 1 ID in the original source m : 4117 (0x1015) Format : HEVC Format/Info : High Efficiency Video Coding Format profile : Main 10@L5.1@High HDR format : Dolby Vision, Version 1.0, dvhe.08.06, BL+RPU, Blu-ray compatible / SMPTE ST 2086, HDR10 compatible Codec ID : V_MPEGH/ISO/HEVC Duration : 2 h 0 min Bit rate : 58.2 Mb/s Width : 3 840 pixels Height : 2 160 pixels Display aspect ratio : 16:9 Frame rate mode : Constant Frame rate : 24.000 FPS Color space : YUV Chroma subsampling : 4:2:0 (Type 2) Bit depth : 10 bits Bits/(Pixel*Frame) : 0.292 Stream size : 49.1 GiB (93%) Language : English Default : No Forced : No Color range : Limited Color primaries : BT.2020 Transfer characteristics : PQ Matrix coefficients : BT.2020 non-constant Mastering display color pri : BT.2020 Mastering display luminance : min: 0.0001 cd/m2, max: 1000 cd/m2 Maximum Content Light Level : 1000 cd/m2 Maximum Frame-Average Light : 400 cd/m2 Original source medium : Blu-ray Audio #1 ID : 2 Format : AC-3 Format/Info : Audio Coding 3 Commercial name : Dolby Digital Codec ID : A_AC3 Duration : 2 h 0 min Bit rate mode : Constant Bit rate : 448 kb/s Channel(s) : 6 channels Channel layout : L R C LFE Ls Rs Sampling rate : 48.0 kHz Frame rate : 31.250 FPS (1536 SPF) Compression mode : Lossy Stream size : 386 MiB (1%) Title : Dub Language : Russian Service kind : Complete Main Default : Yes Forced : Yes Audio #2 ID : 3 Format : DTS XLL Format/Info : Digital Theater Systems Commercial name : DTS-HD Master Audio Codec ID : A_DTS Duration : 2 h 0 min Bit rate mode : Variable Bit rate : 3 658 kb/s Channel(s) : 6 channels Channel layout : C L R Ls Rs LFE Sampling rate : 48.0 kHz Frame rate : 93.750 FPS (512 SPF) Bit depth : 24 bits Compression mode : Lossless Stream size : 3.09 GiB (6%) Title : Original Language : English Default : No Forced : No Text ID : 4 Format : UTF-8 Codec ID : S_TEXT/UTF8 Codec ID/Info : UTF-8 Plain Text Duration : 1 h 57 min Bit rate : 38 b/s Frame rate : 0.144 FPS Count of elements : 1010 Stream size : 32.6 KiB (0%) Title : Full Language : English Default : No Forced : No Menu 00:00:00.000 : en:Глава 01 00:10:36.167 : en:Глава 02 00:18:05.625 : en:Глава 03 00:25:03.667 : en:Глава 04 00:35:55.292 : en:Глава 05 00:43:42.958 : en:Глава 06 00:52:20.625 : en:Глава 07 00:56:51.417 : en:Глава 08 01:12:29.083 : en:Глава 09 01:19:03.375 : en:Глава 10 01:22:55.708 : en:Глава 11 01:29:42.833 : en:Глава 12 01:36:50.708 : en:Глава 13 01:42:25.417 : en:Глава 14 01:56:08.750 : en:Глава 15 01:58:58.542 : en:Глава 16
Релиз: Присоединяйся к: Кликай на баннеры.

Всего файлов в раздаче: 1 
The.Legend.of.1900.1998.BDREMUX.2160p.HDR.DVP8.seleZen.mkv52.55 GB

Похожие раздачи по запросу - Легенда
2024-04-07 magnet Край реальности 9: Легенда о Гринбуше / Edge of Reality 9: The Legend Of Greenbush CE (2024) PC 2.30 GB ↑ 0 ↓ 0
2024-04-07 magnet Я – легенда / I Am Legend (2007) BDRip 720p от KORSAR | D, P, P2, A, L1 | Alternative Cut 8.93 GB ↑ 0 ↓ 0
2024-03-18 magnet Легенда о Хэй / Легенда о Ло Сяохэе / The Legend of Hei / The Legend of Luo Xiaohei (2019) BDRip 1080p от KORSARS | AniDub 7.02 GB ↑ 0 ↓ 0
2024-03-14 magnet Аватар: Легенда об Аанге / Avatar: The Last Airbender [S01] (2024) WEB-DL-HEVC 2160p | 4K | SDR | D | Red Head Sound 36.86 GB ↑ 0 ↓ 1
2024-03-14 magnet Аватар: Легенда об Аанге / Avatar: The Last Airbender [S01] (2024) WEB-DL 1080p | HDrezka Studio, LostFilm, TVShows, NewComers, Red Head Sound 26.58 GB ↑ 0 ↓ 1
2024-03-13 magnet Аватар: Легенда об Аанге / Avatar: The Last Airbender [S01] (2024) WEB-DLRip | LostFilm 1К6.06 GB ↑ 0 ↓ 1
2024-03-13 magnet Аватар: Легенда об Аанге / Avatar: The Last Airbender [S01] (2024) WEB-DL 1080p | D | Red Head Sound 20.29 GB ↑ 0 ↓ 2

Комментарии


Зарегистрируйтесь чтобы добавить комментарий
Торрент клиент
byTorrent - программа для загрузки торрент-файлов.

Скачать byTorrent.exe (1,5 МБ)

Скачать byTorrent.zip (0,6 МБ)

Поддержи torrent.by
российских рублей
(300 российских рублей это 4$)

Обратная связь rss

End game ©