↑↓torrent.by
Поиск
Логин:  Регистрация
Пароль:

Курьеры [S01] (2024) WEB-DLRip 720p от ExKinoRay

download Скачать торрент-файл   magnet Магнитная ссылка Размер: 8.13 GB Добавлен: 2024-03-19 11:00
Пиры будут получены из сети DHT
Последний сидер был замечен 2024-03-21 06:13
Информация о фильме Название: Курьеры Год выхода: 2024 Жанр: Комедия, драма Режиссер: Илья Максимов В ролях: Владислав Тирон, Милана Бру, Константин Крюков, Ольга Погодина, Роман Маякин, Кристина Кукас, Амаду Мамадаков, Давид Сократян, Валентин Смирнитский, Татьяна Кравченко, Ольга Медынич, Раиса Рязанова, Алексей Воробьёв, Анфиса Чехова, Евгений Ребров, Илхомджон Абдурахмонов, Фируза Саидова, Сергей Дьяков, Евгений Харитонов, Владимир Виноградов, Юлия Куварзина, Иван Чернов, Кирилл Шварценберг, Станислав Бондаренко, Михаил Филиппов О фильме: 0-летний Гоша, родившийся в обеспеченной московской семье, «просиживает» штаны на 4 курсе медицинского университета, но очень хочет стать режиссером. Однажды он заявляет матери, что бросает медицинский и будет поступать в киношколу. Мать готова позволить сыну осуществить мечту, но только если он докажет, что сможет хотя бы три месяца прожить без гарантированной финансовой поддержки. В результате, взрослая жизнь обрушивается на вчерашнего подростка: ему нужно, как минимум, найти жилье и заработать хоть какие-то деньги на пропитание. Гоша устраивается курьером в службу доставки, и у него начинается совсем другая жизнь, к которой он оказывается абсолютно не приспособлен. Но постепенно Гоша начинает меняться, хотя все время попадает в нелепые и смешные ситуации. Именно среди курьеров Гоша находит настоящих друзей и свою большую любовь. А тут еще Гоша узнает, что его отец, которого он считал погибшим, жив, знаменит, и ничего пока не знает о сыне, работающем теперь простым курьером. Страна: Россия Студия: Институт развития интернета, МТС Медиа, Пиманов и партнеры Язык:Русский Премьера в Росcии: 11 марта 2024 года Цифровой релиз: 11 марта 2024 года Возраст: 12+ Файл Формат: MKV Качество: WEB-DLRip 720p Видео: MPEG-4 AVC, ~ 3500 Кбит/с, 1280x736, 25 кадр/с Аудио : Русский AC3, 2 ch, 256 Кбит/с RUS Продолжительность: 8 x ~ 00:40:00 Субтитры: Нет Реклама: Отсутствует
[+] МИ General Unique ID : 180871789929416035364294020840867840499 (0x8812A3BEEC30E5FB8F43544DDA8D41F3) Complete name : G:Kurery.S01.2024.WEB-DLRip.720p.ExKinoRayKurery.S01.E01.2024.WEB-DLRip.720p.ExKinoRay.mkv Format : Matroska Format version : Version 4 File size : 1 013 MiB Duration : 37 min 41 s Overall bit rate : 3 758 kb/s Encoded date : UTC 2024-03-10 22:55:42 Writing application : mkvmerge v6.9.1 ('Blue Panther') 64bit built on Apr 18 2014 18:23:38 Writing library : libebml v1.3.0 + libmatroska v1.4.1 Video ID : 1 Format : AVC Format/Info : Advanced Video Codec Format profile : High@L4.1 Format settings : CABAC / 9 Ref Frames Format settings, CABAC : Yes Format settings, Reference frames : 9 frames Codec ID : V_MPEG4/ISO/AVC Duration : 37 min 41 s Bit rate : 3 500 kb/s Width : 1 280 pixels Height : 536 pixels Display aspect ratio : 2.40:1 Frame rate mode : Constant Frame rate : 25.000 FPS Color space : YUV Chroma subsampling : 4:2:0 Bit depth : 8 bits Scan type : Progressive Bits/(Pixel*Frame) : 0.204 Stream size : 924 MiB (91%) Writing library : x264 core 146 r2538 121396c Encoding settings : cabac=1 / ref=9 / deblock=1:-3:-3 / analyse=0x3:0x113 / me=umh / subme=11 / psy=1 / psy_rd=1.00:0.02 / mixed_ref=1 / me_range=32 / chroma_me=1 / trellis=2 / 8x8dct=1 / cqm=0 / deadzone=21,11 / fast_pskip=1 / chroma_qp_offset=-3 / threads=24 / lookahead_threads=8 / sliced_threads=0 / nr=0 / decimate=0 / interlaced=0 / bluray_compat=0 / constrained_intra=0 / bframes=10 / b_pyramid=2 / b_adapt=2 / b_bias=0 / direct=3 / weightb=1 / open_gop=0 / weightp=2 / keyint=250 / keyint_min=25 / scenecut=40 / intra_refresh=0 / rc_lookahead=60 / rc=2pass / mbtree=1 / bitrate=3500 / ratetol=1.0 / qcomp=0.60 / qpmin=0 / qpmax=69 / qpstep=4 / cplxblur=20.0 / qblur=0.5 / vbv_maxrate=14000 / vbv_bufsize=14000 / nal_hrd=none / filler=0 / ip_ratio=1.40 / aq=3:1.40 Language : Russian Default : Yes Forced : No Color range : Limited Color primaries : BT.709 Transfer characteristics : BT.709 Matrix coefficients : BT.709 Audio ID : 2 Format : AC-3 Format/Info : Audio Coding 3 Commercial name : Dolby Digital Codec ID : A_AC3 Duration : 37 min 41 s Bit rate mode : Constant Bit rate : 256 kb/s Channel(s) : 2 channels Channel layout : L R Sampling rate : 48.0 kHz Frame rate : 31.250 FPS (1536 SPF) Compression mode : Lossy Stream size : 69.0 MiB (7%) Language : Russian Service kind : Complete Main Default : Yes Forced : No
[+] Скриншоты
Релиз от:

Всего файлов в раздаче: 8 
Kurery.S01.E01.2024.WEB-DLRip.720p.ExKinoRay.mkv1013.21 MB
Kurery.S01.E02.2024.WEB-DLRip.720p.ExKinoRay.mkv1019.59 MB
Kurery.S01.E03.2024.WEB-DLRip.720p.ExKinoRay.mkv1011.31 MB
Kurery.S01.E04.2024.WEB-DLRip.720p.ExKinoRay.mkv1.03 GB
Kurery.S01.E05.2024.WEB-DLRip.720p.ExKinoRay.mkv1.05 GB
Kurery.S01.E06.2024.WEB-DLRip.720p.ExKinoRay.mkv1.07 GB
Kurery.S01.E07.2024.WEB-DLRip.720p.ExKinoRay.mkv1.02 GB
Kurery.S01.E08.2024.WEB-DLRip.720p.ExKinoRay.mkv994.45 MB

Похожие раздачи по запросу - Курьеры
2024-03-20 magnet Курьеры [S01] (2024) WEBRip-AVC от Generalfilm | КПК 1.37 GB ↑ 0 ↓ 0
2024-03-18 magnet Курьеры [S01] (2024) WEBRip-AVC от Files-x 3.88 GB ↑ 0 ↓ 0
2024-03-18 magnet Курьеры [S01] (2024) WEBRip 4.01 GB ↑ 0 ↓ 0
2024-03-18 magnet Курьеры [S01] (2024) WEBRip 1080p 1К13.75 GB ↑ 0 ↓ 0
2024-03-11 magnet Курьеры [01х01-04 из 08] (2024) WEBRip-AVC от Files-x 1.91 GB ↑ 0 ↓ 0
2024-03-11 magnet Курьеры [01-04 из 08] (2024) WEBRip 1.98 GB ↑ 0 ↓ 0
2024-03-11 magnet Курьеры [01-04 из 08] (2024) WEBRip 1080p 6.78 GB ↑ 0 ↓ 0

Комментарии


Зарегистрируйтесь чтобы добавить комментарий
Торрент клиент
byTorrent - программа для загрузки торрент-файлов.

Скачать byTorrent.exe (1,5 МБ)

Скачать byTorrent.zip (0,6 МБ)

Поддержи torrent.by
российских рублей
(300 российских рублей это 4$)

Обратная связь rss

End game ©