↑↓torrent.by
Поиск
Логин:  Регистрация
Пароль:

Пароль «Рыба-меч» / Swordfish (2001) BDRip 720p | D, P, A

download Скачать торрент-файл   magnet Магнитная ссылка Размер: 5.49 GB Добавлен: 2024-03-19 11:00
Пиры будут получены из сети DHT
Последний сидер был замечен 2024-03-19 18:17
Страна: США, Австралия Жанр: боевик, триллер, криминал Год выпуска: 2001 Продолжительность: 01:39:15 Перевод: Профессиональный (полное дублирование) + Профессиональный (многоголосый, закадровый) + Авторский + Оригинал Субтитры: русские ( 4 вида ), русские ( на не переведенное место у Киномании ), английские. Режиссер: Доминик Сена / Dominic Sena В ролях: Джон Траволта (Gabriel Shear), Хью Джекман (Stanley Jobson), Холли Берри (Ginger Knowles), Дон Чидл (Agent J.T. Roberts), Сэм Шепард (Senator James Reisman), Винни Джонс (Marco), Дреа де Маттео (Melissa), Рудольф Мартин (Axl Torvalds), Зэк Гренье (Assistant Director Bill Joy), Камрин Граймс (Holly Jobson), Анджело Паган (Torres), Чик Дэниел (SWAT Leader) Дублёры: Леонид Белозорович (Gabriel Shear), Денис Беспалый (Stanley Jobson), Нина Тобилевич (Ginger Knowles), Андрей Бархударов (Agent J.T. Roberts), Рудольф Панков (Senator James Reisman), Алексей Рязанцев (Marco; Gabriel's Crew; Senator Reisman's Assistant), Лариса Некипелова (Melissa), Андрей Градов (Axl Torvalds), Всеволод Абдулов (Assistant Director Bill Joy), Татьяна Весёлкина (Holly Jobson), Олег Куценко (Torres ; Agent Thomas), Никита Прозоровский (Axel's Lawyer; FBI Geek; Dark Suit) Описание: Один из самых опасных шпионов в мире - харизматичный Гэбриэл Шир - работавший когда-то на ЦРУ, а ныне ставший гениальным преступником, задумывает украсть 9 миллиардов долларов из нелегальных правительственных фондов. Для этого ему нужны помощь суперхакера, способного взломать систему безопасности любой компьютерной сети. Таким умельцем является Стэнли Джобсон, который недавно отсидел срок за взлом ФБР. В результате Джобсон остался без гроша, без любимого занятия, а главное - без любимой дочери Холли. Гэбриэл и его очаровательная партнёрша Джинджер заманивают Стэнли в своё дерзкое предприятие, обещая хакеру то, от чего он не может отказаться - в обмен на выполненную работу он получит опекунство над дочерью и шанс начать новую жизнь. Однако, взявшись за реализацию этой сложной и рискованной операции, Стэнли вдруг понимает, что он лишь пешка в большой игре... MPAA: R - Лицам до 17 лет обязательно присутствие взрослого Семпл Качество: BDRip Контейнер: MKV Видео: AVC, 1280x534 (2.40:1), 4463 kbps, 23,976 fps, 0,272 bpp Аудио №1: русский / AC3 / 5.1 / 48 kHz / 384 kbps ( Дубляж ) Аудио №2: русский / AC3 / 5.1 / 48 kHz / 384 kbps ( Киномания ) Аудио №3: русский / AC3 / 5.1 / 48 kHz / 384 kbps ( Карусель №1 ) Аудио №4: русский / AC3 / 5.1 / 48 kHz / 384 kbps ( Карусель №2 ) Аудио №5: русский / AC3 / 2.0 / 48 kHz / 224 kbps ( OPT ) Аудио №6: русский / AC3 / 5.1 / 48 kHz / 384 kbps ( А. Гаврилов ) Аудио №7: русский / AC3 / 5.1 / 48 kHz / 384 kbps ( С. Визгунов ) Аудио №8: русский / AC3 / 5.1 / 48 kHz / 384 kbps ( В. Завгородний ) Аудио №9: английский / AC3 / 5.1 / 48 kHz / 384 kbps Навигация по главам: есть
[+] Media Info --------------------------------------------------------------------- x264 : frame I:2101 Avg QP:14.68 size: 93459 x264 : frame P:72760 Avg QP:17.23 size: 35944 x264 : frame B:67932 Avg QP:20.64 size: 9208 --------------------------------------------------------------------- Format : Matroska Format version : Version 2 File size : 5.49 GiB Duration : 1h 39mn Overall bit rate : 7 917 Kbps Movie name : = Пароль «Рыба-меч» / Swordfish BDRip 720p by SC Kosmos = Encoded date : UTC 2014-11-13 15:16:47 Writing application : mkvmerge v3.3.0 ('Language') gebaut am Mar 24 2010 14:59:24 Writing library : libebml v0.8.0 + libmatroska v0.9.0 Video ID : 1 Format : AVC Format/Info : Advanced Video Codec Format profile : High@L4.1 Format settings, CABAC : Yes Format settings, ReFrames : 12 frames Codec ID : V_MPEG4/ISO/AVC Duration : 1h 39mn Bit rate : 4 463 Kbps Width : 1 280 pixels Height : 534 pixels Display aspect ratio : 2.40:1 Frame rate : 23.976 fps Color space : YUV Chroma subsampling : 4:2:0 Bit depth : 8 bits Scan type : Progressive Bits/(Pixel*Frame) : 0.272 Stream size : 3.09 GiB (56%) Title : Пароль «Рыба-меч» / Swordfish BDRip 720p by SC Kosmos Writing library : x264 core 142 r2479 dd79a61 Encoding settings : cabac=1 / ref=12 / deblock=1:-3:-3 / analyse=0x3:0x113 / me=umh / subme=11 / psy=1 / psy_rd=1.00:0.00 / mixed_ref=1 / me_range=48 / chroma_me=1 / trellis=2 / 8x8dct=1 / cqm=0 / deadzone=21,11 / fast_pskip=0 / chroma_qp_offset=-2 / threads=12 / lookahead_threads=1 / sliced_threads=0 / nr=0 / decimate=1 / interlaced=0 / bluray_compat=0 / constrained_intra=0 / bframes=14 / b_pyramid=2 / b_adapt=1 / b_bias=0 / direct=3 / weightb=1 / open_gop=0 / weightp=2 / keyint=240 / keyint_min=23 / scenecut=40 / intra_refresh=0 / rc_lookahead=40 / rc=crf / mbtree=0 / crf=18.0 / qcomp=0.60 / qpmin=0 / qpmax=69 / qpstep=4 / vbv_maxrate=62500 / vbv_bufsize=78125 / crf_max=0.0 / nal_hrd=none / filler=0 / ip_ratio=1.40 / pb_ratio=1.30 / aq=1:1.00 Language : English Default : No Forced : No Audio #1 ID : 2 Format : AC-3 Format/Info : Audio Coding 3 Mode extension : CM (complete main) Codec ID : A_AC3 Duration : 1h 39mn Bit rate mode : Constant Bit rate : 384 Kbps Channel(s) : 6 channels Channel positions : Front: L C R, Side: L R, LFE Sampling rate : 48.0 KHz Bit depth : 16 bits Compression mode : Lossy Stream size : 273 MiB (5%) Title : Дубляж Language : Russian Default : Yes Forced : No Audio #2 ID : 3 Format : AC-3 Format/Info : Audio Coding 3 Mode extension : CM (complete main) Codec ID : A_AC3 Duration : 1h 39mn Bit rate mode : Constant Bit rate : 384 Kbps Channel(s) : 6 channels Channel positions : Front: L C R, Side: L R, LFE Sampling rate : 48.0 KHz Bit depth : 16 bits Compression mode : Lossy Stream size : 273 MiB (5%) Title : MVO ( Киномания ) Language : Russian Default : No Forced : No Audio #3 ID : 4 Format : AC-3 Format/Info : Audio Coding 3 Mode extension : CM (complete main) Codec ID : A_AC3 Duration : 1h 39mn Bit rate mode : Constant Bit rate : 384 Kbps Channel(s) : 6 channels Channel positions : Front: L C R, Side: L R, LFE Sampling rate : 48.0 KHz Bit depth : 16 bits Compression mode : Lossy Stream size : 273 MiB (5%) Title : MVO ( Карусель №1 ) Language : Russian Default : No Forced : No Audio #4 ID : 5 Format : AC-3 Format/Info : Audio Coding 3 Mode extension : CM (complete main) Codec ID : A_AC3 Duration : 1h 39mn Bit rate mode : Constant Bit rate : 384 Kbps Channel(s) : 6 channels Channel positions : Front: L C R, Side: L R, LFE Sampling rate : 48.0 KHz Bit depth : 16 bits Compression mode : Lossy Stream size : 273 MiB (5%) Title : MVO ( Карусель №2 ) Language : Russian Default : No Forced : No Audio #5 ID : 6 Format : AC-3 Format/Info : Audio Coding 3 Mode extension : CM (complete main) Codec ID : A_AC3 Duration : 1h 39mn Bit rate mode : Constant Bit rate : 224 Kbps Channel(s) : 2 channels Channel positions : Front: L R Sampling rate : 48.0 KHz Bit depth : 16 bits Compression mode : Lossy Stream size : 159 MiB (3%) Title : MVO ( OPT ) Language : Russian Default : No Forced : No Audio #6 ID : 7 Format : AC-3 Format/Info : Audio Coding 3 Mode extension : CM (complete main) Codec ID : A_AC3 Duration : 1h 39mn Bit rate mode : Constant Bit rate : 384 Kbps Channel(s) : 6 channels Channel positions : Front: L C R, Side: L R, LFE Sampling rate : 48.0 KHz Bit depth : 16 bits Compression mode : Lossy Stream size : 273 MiB (5%) Title : AVO ( А. Гаврилов ) Language : Russian Default : No Forced : No Audio #7 ID : 8 Format : AC-3 Format/Info : Audio Coding 3 Mode extension : CM (complete main) Codec ID : A_AC3 Duration : 1h 39mn Bit rate mode : Constant Bit rate : 384 Kbps Channel(s) : 6 channels Channel positions : Front: L C R, Side: L R, LFE Sampling rate : 48.0 KHz Bit depth : 16 bits Compression mode : Lossy Stream size : 273 MiB (5%) Title : AVO ( С. Визгунов ) Language : Russian Default : No Forced : No Audio #8 ID : 9 Format : AC-3 Format/Info : Audio Coding 3 Mode extension : CM (complete main) Codec ID : A_AC3 Duration : 1h 39mn Bit rate mode : Constant Bit rate : 384 Kbps Channel(s) : 6 channels Channel positions : Front: L C R, Side: L R, LFE Sampling rate : 48.0 KHz Bit depth : 16 bits Compression mode : Lossy Stream size : 273 MiB (5%) Title : AVO ( В. Завгородний ) Language : Russian Default : No Forced : No Audio #9 ID : 10 Format : AC-3 Format/Info : Audio Coding 3 Mode extension : CM (complete main) Codec ID : A_AC3 Duration : 1h 39mn Bit rate mode : Constant Bit rate : 384 Kbps Channel(s) : 6 channels Channel positions : Front: L C R, Side: L R, LFE Sampling rate : 48.0 KHz Bit depth : 16 bits Compression mode : Lossy Stream size : 273 MiB (5%) Language : English Default : No Forced : No Text #1 ID : 11 Format : UTF-8 Codec ID : S_TEXT/UTF8 Codec ID/Info : UTF-8 Plain Text Language : Russian Default : No Forced : No Text #2 ID : 12 Format : UTF-8 Codec ID : S_TEXT/UTF8 Codec ID/Info : UTF-8 Plain Text Language : Russian Default : No Forced : No Text #3 ID : 13 Format : UTF-8 Codec ID : S_TEXT/UTF8 Codec ID/Info : UTF-8 Plain Text Language : Russian Default : No Forced : No Text #4 ID : 14 Format : UTF-8 Codec ID : S_TEXT/UTF8 Codec ID/Info : UTF-8 Plain Text Language : Russian Default : No Forced : No Text #5 ID : 15 Format : UTF-8 Codec ID : S_TEXT/UTF8 Codec ID/Info : UTF-8 Plain Text Title : на не переведенное место у Киномании Language : Russian Default : No Forced : No Text #6 ID : 16 Format : UTF-8 Codec ID : S_TEXT/UTF8 Codec ID/Info : UTF-8 Plain Text Language : English Default : No Forced : No Menu 00:00:00.000 : en:Cinematic Theory 00:04:03.701 : en:Explosively Wrong Move 00:08:12.033 : en:Interception At LAX 00:11:47.456 : en:Ginger Visits 00:15:07.489 : en:Parental Devotion 00:18:47.042 : en:Axl In The Box 00:21:58.275 : en:Through The Looking... 00:24:14.786 : en:Gabriel's World 00:25:50.090 : en:Nearly Gone In 60... 00:30:36.000 : en:A Deal 00:34:01.289 : en:Stan's Only Shot 00:37:44.261 : en:Holly's Ride 00:42:11.654 : en:Way Over His Head 00:46:48.305 : en:Ginger Off Guard 00:49:12.824 : en:Operation Swordfish 00:51:52.275 : en:Worm And A Rottweiler 00:55:27.323 : en:Hackstasy 00:58:32.509 : en:Hitting The Hit Squad 01:03:18.544 : en:Executed For Treason 01:05:53.616 : en:War Costs 01:09:19.989 : en:Bank Crash 01:11:11.433 : en:Daughter In Danger 01:15:24.895 : en:Ginger Snapped 01:20:09.095 : en:Misdirection 01:23:15.782 : en:Bus That Could Fly 01:26:55.960 : en:Stan's Ending 01:29:01.336 : en:Flashback 01:30:59.454 : en:Travel Partners 01:33:29.729 : en:End Credits
[+] Скриншоты
За звуковые дороги и субтитры - Большое Спасибо xxL32 и HQCLUBу

Всего файлов в раздаче: 1 
RybaMetsh.BDRip.720p.mkv5.49 GB

Похожие раздачи по запросу - Пароль
2024-03-18 magnet Пароль «Рыба-меч» / Swordfish (2001) BDRip-AVC от DoMiNo | D, P 1К2.80 GB ↑ 0 ↓ 0
2024-03-18 magnet Пароль «Рыба-меч» / Swordfish (2001) BDRip 1080p | D, P, A от Giorgi0412 9.72 GB ↑ 0 ↓ 0
2024-03-18 magnet Пароль «Рыба-меч» / Swordfish (2001) BDRip-HEVC 1080p от ХиМиК | D, P, A 8.86 GB ↑ 0 ↓ 0
2024-03-18 magnet Пароль «Рыба-меч» / Swordfish (2001) BDRemux 1080p | D, P, A 17.28 GB ↑ 0 ↓ 0

Комментарии


Зарегистрируйтесь чтобы добавить комментарий
Торрент клиент
byTorrent - программа для загрузки торрент-файлов.

Скачать byTorrent.exe (1,5 МБ)

Скачать byTorrent.zip (0,6 МБ)

Поддержи torrent.by
российских рублей
(300 российских рублей это 4$)

Обратная связь rss

End game ©