↑↓torrent.by
Поиск
Логин:  Регистрация
Пароль:

Артист с большой дороги [01-05 из 08] (2023) WEB-DLRip

download Скачать торрент-файл   magnet Магнитная ссылка Размер: 3.11 GB Добавлен: 2024-03-19 11:00
Пиры будут получены из сети DHT
Последний сидер был замечен 2024-03-19 11:00
Информация о фильме Название: Артист с большой дороги Год выхода: 2023 Жанр: Комедия Режиссёр: Дмитрий Грибанов В ролях: Юрий Стоянов, Филипп Бледный, Юрий Ицков, Анна Глаубэ, Владислав Воробей, Антон Шаврин, Алексей Демидов, Александр Самойленко, Арина Савостьянова, Севастьян Бугаев, Ольга Лапшина, Александр Румянцев, Виктор Новиков, Ярослав Петрашко, Михаил Коновалов, Юля Беляева, Елена Ветрова, Олег Кассин, Сергей Габриэлян мл., Сергей Легостаев, Наталья Щукина, Григорий Багров, Елена Новикова, Роман Мигурский, Матвей Ложкин, Жанна Вульф, Александр Бобров, София Лощинина О фильме: Вор-рецидивист по кличке Артист выходит из тюрьмы после третьего срока. Он решает завязать с криминальным прошлым, но для этого ему нужно добраться до награбленного, которое он спрятал в тайнике в своем доме. К этому времени там живут невестка и внуки Артиста и, чтобы забрать свои воровские трофеи, ему приходится вспомнить театральное прошлое и устроиться няней к собственным внукам. Страна: Россия Студия: Телеканал «Россия 1», Институт развития интернета, ООО «Старт Студио» Продолжительность: 5 x ~ 00:48:00 Язык: Русский Премьера в Росcии: 29 февраля 2024 года Цифровой релиз: 29 февраля 2024 года Примечание: Без рекламы Возраст: 16+ Файл Формат: AVI Качество: WEB-DLRip Видео: XviD, ~ 1650 Кбит/с, 720x400 Звук: AC3, 2 ch, 192 Кбит/с Субтитры: Русские (SDH) - отдельно Семпл
[+] Скриншоты
[+] MIОбщее Полное имя : C:UsersAdminDesktopArtist.s.bolshoj.dorogi.S01.2023.WEB-DLRipArtist.s.bolshoj.dorogi.S01.E01.2023.WEB-DLRip.avi Формат : AVI Формат/Информация : Audio Video Interleave Размер файла : 637 Мбайт Продолжительность : 48 м. 4 с. Общий поток : 1 852 Кбит/сек Программа кодирования : Lavf59.16.100 Видео Идентификатор : 0 Формат : MPEG-4 Visual Профиль формата : Advanced Simple@L5 Настройки формата : BVOP1 / Custom Matrix Параметр BVOP формата : 1 Параметр QPel формата : Нет Параметр GMC формата : Без точки перехода Параметр матрицы формата : Выборочная Идентификатор кодека : XVID Идентификатор кодека/Подсказка : XviD Продолжительность : 48 м. 4 с. Битрейт : 1 649 Кбит/сек Ширина : 720 пикселей Высота : 400 пикселей Соотношение сторон : 16:9 Частота кадров : 25,000 кадров/сек Цветовое пространство : YUV Субдискретизация насыщенности : 4:2:0 Битовая глубина : 8 бит Тип развёртки : Прогрессивная Метод сжатия : С потерями Бит/(Пиксели*Кадры) : 0.229 Размер потока : 567 Мбайт (89%) Библиотека кодирования : XviD 69 Аудио Идентификатор : 1 Формат : AC-3 Формат/Информация : Audio Coding 3 Коммерческое название : Dolby Digital Идентификатор кодека : 2000 Продолжительность : 48 м. 4 с. Вид битрейта : Постоянный Битрейт : 192 Кбит/сек Каналы : 2 канала Channel layout : L R Частота : 48,0 КГц Частота кадров : 31,250 кадров/сек (1536 SPF) Битовая глубина : 16 бит Метод сжатия : С потерями Размер потока : 66,0 Мбайт (10%) Выравнивание : Соединение по промежуткам Продолжительность промежутка : 32 мс. (0,80 видеокадр) Service kind : Complete Main

Всего файлов в раздаче: 10 
Artist.s.bolshoj.dorogi.S01.E01.2023.WEB-DLRip.avi636.88 MB
Artist.s.bolshoj.dorogi.S01.E01.2023.WEB-DLRip.srt62.39 kB
Artist.s.bolshoj.dorogi.S01.E02.2023.WEB-DLRip.avi636.24 MB
Artist.s.bolshoj.dorogi.S01.E02.2023.WEB-DLRip.srt60.74 kB
Artist.s.bolshoj.dorogi.S01.E03.2023.WEB-DLRip.avi639.13 MB
Artist.s.bolshoj.dorogi.S01.E03.2023.WEB-DLRip.srt69.67 kB
Artist.s.bolshoj.dorogi.S01.E04.2023.WEB-DLRip.avi632.26 MB
Artist.s.bolshoj.dorogi.S01.E04.2023.WEB-DLRip.srt63.77 kB
Artist.s.bolshoj.dorogi.S01.E05.2023.WEB-DLRip.avi639.59 MB
Artist.s.bolshoj.dorogi.S01.E05.2023.WEB-DLRip.srt64.52 kB

Похожие раздачи по запросу - Артист
Вчера magnet Артист с большой дороги [S01] (2023) WEB-DLRip-AVC от Generalfilm | КПК 1.70 GB ↑ 0 ↓ 0
2024-04-09 magnet Артист с большой дороги [01-08 из 08] (2023) WEB-DLRip-AVC от Files-x 4.82 GB ↑ 0 ↓ 0
2024-04-09 magnet Артист с большой дороги [S01] (2023) WEB-DL 1080p 13.88 GB ↑ 0 ↓ 0
2024-04-09 magnet Артист с большой дороги [S01] (2023) WEB-DLRip 4.97 GB ↑ 0 ↓ 0
2024-04-09 magnet Артист с большой дороги [S01] (2023) WEBRip 2160p | 4K | SDR 52.09 GB ↑ 0 ↓ 0
2024-04-09 magnet Артист с большой дороги [S01] (2023) WEB-DL 720p от ExKinoRay 9.21 GB ↑ 0 ↓ 0
2024-04-06 magnet Артист с большой дороги [01-07 из 08] (2023) WEB-DLRip-AVC от Generalfilm | КПК 1.49 GB ↑ 0 ↓ 0

Комментарии


Зарегистрируйтесь чтобы добавить комментарий
Торрент клиент
byTorrent - программа для загрузки торрент-файлов.

Скачать byTorrent.exe (1,5 МБ)

Скачать byTorrent.zip (0,6 МБ)

Поддержи torrent.by
российских рублей
(300 российских рублей это 4$)

Обратная связь rss

End game ©