↑↓torrent.by
Поиск
Логин:  Регистрация
Пароль:

Старый охотник на медведей / Matagi / The Old Bear Hunter (1982) DVDRip | L1

download Скачать торрент-файл   magnet Магнитная ссылка Размер: 1.59 GB Раздают: 0 Качают: 1 Добавлен: 2024-03-19 17:00
Пиры будут получены из сети DHT
Последний сидер был замечен 2024-03-20 00:26
Информация о фильме Название: Старый охотник на медведей Оригинальное название: Matagi / The Old Bear Hunter Год выхода: 1982 Жанр: Приключения, драма Режиссер: Тосио Гото В ролях: Ко Нисимура, Дзюндзабуро Бан, Михоко Фудзита, Ёсио Инаба, Кадзуки Томокава, Такао Ягучи, Гоичи Ямада О фильме: Фильм рассказывает о охотнике живущем в горной деревне на Хоккайдо, когда-то на него напал огромный медведь, но ему удалось выжить. Старик живёт мыслью поквитаться с медведем, не смотря на то, что односельчане не верят его рассказу, и даже сын считает, что старику просто не нравиться крестьянский труд и он находит такой повод сбегать в горы. Только внук Таро верит и помогает своему любимому деду. Страна: Япония Продолжительность: 01:43:40 Перевод: Любительский (одноголосый закадровый) Антон Кудрявцев Файл Кодек: AVI Качество: DVDRip Видео: 720x400 (1.80:1), 30 fps, XviD build 50 ~1805 kbps avg, 0.21 bit/pixel Аудио: 48 kHz, AC3 Dolby Digital, 2/0 (L,R) ch, ~192 kbps Rus Отдельно: Аудио 2: 48 kHz, AC3 Dolby Digital, 2/0 (L,R) ch, ~192 kbps Jap Субтитры: русские
[+] MediaInfo Общее Полное имя : D:Matagi (1982) DVDRip.avi Формат : AVI Формат/Информация : Audio Video Interleave Размер файла : 1,45 Гбайт Продолжительность : 1 ч. 43 м. Общий поток : 2009 Кбит/сек Название фильма : Matagi (1982) DVDRip Режиссёр : Maksmet Программа кодирования : VirtualDubModRus 1.5.10.2 (build 2542/release) Формат оригинала/Имя : Movie Примечание : 06.04.2020 Видео Идентификатор : 0 Формат : MPEG-4 Visual Профиль формата : Advanced Simple@L5 Параметр BVOP формата : 1 Параметр QPel формата : Нет Параметр GMC формата : Без точки перехода Параметр матрицы формата : Выборочная Идентификатор кодека : XVID Идентификатор кодека/Подсказка : XviD Продолжительность : 1 ч. 43 м. Битрейт : 1805 Кбит/сек Ширина : 720 пикселей Высота : 400 пикселей Соотношение сторон : 16:9 Частота кадров : 30,000 кадров/сек Цветовое пространство : YUV Субдискретизация насыщенности : 4:2:0 Битовая глубина : 8 бит Тип развёртки : Прогрессивная Метод сжатия : С потерями Бит/(Пиксели*Кадры) : 0.209 Размер потока : 1,31 Гбайт (90%) Библиотека кодирования : XviD 1.2.1 (UTC 2008-12-04) Аудио Идентификатор : 1 Формат : AC-3 Формат/Информация : Audio Coding 3 Параметр Endianness формата : Big Идентификатор кодека : 2000 Продолжительность : 1 ч. 43 м. Вид битрейта : Постоянный Битрейт : 192 Кбит/сек Каналы : 2 канала Расположение каналов : Front: L R Частота : 48,0 КГц Частота кадров : 31,250 кадров/сек (1536 SPF) Битовая глубина : 16 бит Метод сжатия : С потерями Размер потока : 142 Мбайт (10%) Выравнивание : Разделение по промежуткам Продолжительность промежутка : 33 мс. (1,00 видеокадр) Время предзагрузки промежутка : 500 мс. ServiceKind/String : Complete Main
[+] Скриншот c названием фильма
[+] Скриншоты
Релиз от:

Всего файлов в раздаче: 3 
Matagi (1982) DVDRip (Jap).ac3142.38 MB
Matagi (1982) DVDRip.avi1.45 GB
Matagi (1982) DVDRip.srt50.70 kB

Похожие раздачи по запросу - Старый
2024-04-13 magnet Денис Старый - Цикл «Лжец на троне» [4 книги] (2023-2024) FB2 4.24 MB ↑ 0 ↓ 0
2024-04-11 magnet Евгений Капба - Цикл «Старый Свет» [4 книги] (2022-2023) FB2 3.58 MB ↑ 0 ↓ 0
2023-04-03 magnet Старый приятель - Не сегодня! (2023) FLAC 282.02 MB ↑ 0 ↓ 0

Комментарии


Зарегистрируйтесь чтобы добавить комментарий
Торрент клиент
byTorrent - программа для загрузки торрент-файлов.

Скачать byTorrent.exe (1,5 МБ)

Скачать byTorrent.zip (0,6 МБ)

Поддержи torrent.by
российских рублей
(300 российских рублей это 4$)

Обратная связь rss

End game ©