↑↓torrent.by
Поиск
Логин:  Регистрация
Пароль:

Захар Беркут / The Rising Hawk (2019) BDRip-AVC | HDRezka Studio | US Version

download Скачать торрент-файл   magnet Магнитная ссылка Размер: 2.90 GB Добавлен: 2024-03-19 17:00
Пиры будут получены из сети DHT
Последний сидер был замечен 2024-04-04 16:26
Информация о фильме Название: Захар Беркут Оригинальное название: The Rising Hawk Год выхода: 2019 Жанр: Боевик, драма, история Режиссер: Ахтем Сейтаблаев, Джон Винн В ролях: Элисон Дуди, Томми Флэнаган, Роберт Патрик, Поппи Дрейтон, Алекс МакНиколл, Роки Майерс, Алина Коваленко, Олег Волощенко, Виктор Жданов О фильме: 1241 год. Монгольская орда во главе с ханом Бурундой движется на запад, истребляя все на своём пути и захватывая пленных. Дойдя до высоких Карпатских гор, войско останавливается у подножия. Ночью несколько местных охотников, братья Беркуты, тайком пробираются в лагерь и освобождают пленных. Узнав об этом, Бурунда приходит в ярость и решает отомстить, уничтожив местные поселения. Для этого он находит предателя среди местных, который открывает ему тайный проход в горах. Однако у горских охотников под предводительством Захара Беркута есть свой план, как раз и навсегда остановить врага. Страна: Украина, США Студия: Cinemaday, Kinorob Продолжительность: 02:05:10 Перевод: Профессиональный (многоголосый, закадровый) | HDRezka Studio Файл Формат: MKV Качество: BDRip-AVC Видео: MPEG-4 AVC, 1024x430 (2.40:1), 23.976 fps, ~2490 Kbps Аудио 1: Russian: 48 kHz, AC3, 3/2 (L, C, R, l, r) + LFE ch, ~384 kbps Аудио 2: English: 48 kHz, AC3, 3/2 (L, C, R, l, r) + LFE ch, ~448 kbps Субтитры: Русские (Forced), английские ***Отсутствует перевод на нескольких отрезках фильма (~ 15 мин). Переведено русскими форсированными субтитрами.
[+] Скриншоты
[+] MI/x264General Unique ID : 195802535919819245053451105767619918082 (0x934E325BAF384987AA9851CC9CF17902) Complete name : Zahar.Berkut.2019.BDRip-AVC.mkv Format : Matroska Format version : Version 4 File size : 2.90 GiB Duration : 2 h 5 min Overall bit rate : 3 321 kb/s Encoded date : UTC 2022-12-12 16:25:07 Writing application : mkvmerge v7.3.0 ('Nouages') 64bit built on Oct 22 2014 18:53:34 Writing library : libebml v1.3.0 + libmatroska v1.4.1 Video ID : 1 Format : AVC Format/Info : Advanced Video Codec Format profile : High@L4.1 Format settings : CABAC / 12 Ref Frames Format settings, CABAC : Yes Format settings, Reference frames : 12 frames Codec ID : V_MPEG4/ISO/AVC Duration : 2 h 5 min Bit rate : 2 490 kb/s Width : 1 024 pixels Height : 430 pixels Display aspect ratio : 2.40:1 Frame rate mode : Constant Frame rate : 23.976 (24000/1001) FPS Color space : YUV Chroma subsampling : 4:2:0 Bit depth : 8 bits Scan type : Progressive Bits/(Pixel*Frame) : 0.236 Stream size : 2.17 GiB (75%) Writing library : x264 core 161 r3048+53M 0749c36 t_mod_New Encoding settings : cabac=1 / ref=12 / deblock=1:-2:-2 / analyse=0x3:0x113 / me=umh / subme=11 / psy=1 / fade_compensate=0.00 / psy_rd=1.00:0.00 / mixed_ref=1 / me_range=48 / chroma_me=1 / trellis=2 / 8x8dct=1 / cqm=0 / deadzone=21,11 / fast_pskip=0 / chroma_qp_offset=-2 / threads=16 / lookahead_threads=3 / sliced_threads=0 / nr=0 / decimate=0 / interlaced=0 / bluray_compat=0 / constrained_intra=0 / fgo=0 / bframes=9 / b_pyramid=2 / b_adapt=2 / b_bias=0 / direct=3 / weightb=1 / open_gop=0 / weightp=2 / keyint=240 / keyint_min=23 / scenecut=40 / intra_refresh=0 / rc_lookahead=80 / rc=2pass / mbtree=0 / bitrate=2490 / ratetol=1.0 / qcomp=0.60 / qpmin=0:0:0 / qpmax=51:51:51 / qpstep=4 / cplxblur=20.0 / qblur=0.5 / vbv_maxrate=50000 / vbv_bufsize=62500 / nal_hrd=none / filler=0 / ip_ratio=1.35 / pb_ratio=1.25 / aq=3:0.80 / aq-sensitivity=10.00 / aq-factor=1.00:1.00:1.00 / aq2=0 / aq3=0 Language : English Default : Yes Forced : No Audio #1 ID : 2 Format : AC-3 Format/Info : Audio Coding 3 Commercial name : Dolby Digital Codec ID : A_AC3 Duration : 2 h 5 min Bit rate mode : Constant Bit rate : 384 kb/s Channel(s) : 6 channels Channel layout : L R C LFE Ls Rs Sampling rate : 48.0 kHz Frame rate : 31.250 FPS (1536 SPF) Compression mode : Lossy Stream size : 343 MiB (12%) Title : MVO (HDRezka Studio) Language : Russian Service kind : Complete Main Default : Yes Forced : No Audio #2 ID : 3 Format : AC-3 Format/Info : Audio Coding 3 Commercial name : Dolby Digital Codec ID : A_AC3 Duration : 2 h 5 min Bit rate mode : Constant Bit rate : 448 kb/s Channel(s) : 6 channels Channel layout : L R C LFE Ls Rs Sampling rate : 48.0 kHz Frame rate : 31.250 FPS (1536 SPF) Compression mode : Lossy Stream size : 401 MiB (13%) Title : Original Language : English Service kind : Complete Main Default : No Forced : No Text #1 ID : 4 Format : UTF-8 Codec ID : S_TEXT/UTF8 Codec ID/Info : UTF-8 Plain Text Duration : 1 h 46 min Bit rate : 10 b/s Count of elements : 192 Stream size : 8.30 KiB (0%) Title : Forced Language : Russian Default : Yes Forced : No Text #2 ID : 5 Format : UTF-8 Codec ID : S_TEXT/UTF8 Codec ID/Info : UTF-8 Plain Text Duration : 1 h 58 min Bit rate : 22 b/s Count of elements : 838 Stream size : 19.3 KiB (0%) Title : Full Language : English Default : No Forced : No Menu 00:00:00.000 : en:Chapter 01 00:09:18.433 : en:Chapter 02 00:18:52.381 : en:Chapter 03 00:30:20.193 : en:Chapter 04 00:43:19.889 : en:Chapter 05 00:51:22.955 : en:Chapter 06 01:01:44.993 : en:Chapter 07 01:09:38.966 : en:Chapter 08 01:21:16.914 : en:Chapter 09 01:32:18.950 : en:Chapter 10 01:43:20.569 : en:Chapter 11 01:59:37.545 : en:Chapter 12 x264 : frame I:1588 Avg QP:16.46 size: 74939 x264 : frame P:47040 Avg QP:18.71 size: 22952 x264 : frame B:131421 Avg QP:20.28 size: 8649

Всего файлов в раздаче: 1 
Zahar.Berkut.2019.BDRip-AVC.mkv2.90 GB

Похожие раздачи по запросу - Захар
2024-03-20 magnet Захар Беркут / The Rising Hawk (2019) BDRip 1080p от ExKinoRay | HDRezka Studio | US version 14.50 GB ↑ 0 ↓ 0

Комментарии


Зарегистрируйтесь чтобы добавить комментарий
Торрент клиент
byTorrent - программа для загрузки торрент-файлов.

Скачать byTorrent.exe (1,5 МБ)

Скачать byTorrent.zip (0,6 МБ)

Поддержи torrent.by
российских рублей
(300 российских рублей это 4$)

Обратная связь rss

End game ©