↑↓torrent.by
Поиск
Логин:  Регистрация
Пароль:

Малхолланд Драйв / Mulholland Dr. (2001) BDRip 1080p от NNNB | D, P2, A

download Скачать торрент-файл   magnet Магнитная ссылка Размер: 18.95 GB Добавлен: 2024-03-19 17:00
Пиры будут получены из сети DHT
Последний сидер был замечен 2024-04-15 21:06
Малхолланд Драйв / Mulholland Dr. «Beware what you dream for...» Русское название: Малхолланд Драйв Оригинальное название: Mulholland Dr. Год выпуска: 2001 Жанр: триллер, драма, детектив Выпущено: Франция, США Режиссер: Дэвид Линч В ролях: Наоми Уоттс , Лаура Хэрринг , Джастин Теру , Энн Миллер , Дэн Хедайя , Брент Бриско , Роберт Форстер , Кэтрин Таун , Ли Грант , Скотт Коффи , Билли Рэй Сайрус , Чад Эверетт Перевод: Дублированный, Профессиональный (двухголосый), Авторский (одноголосый) Сюжет фильма: Загадочная девушка, страдающая потерей памяти после автомобильной аварии, выбирает себе имя Рита с рекламного плаката к фильму с Ритой Хейворт и пытается с новым именем начать в Голливуде новую жизнь. Но тайны прошлого неотступно преследуют ее. Кто были те двое мужчин, что сидели в одной машине с ней и погибли в аварии? Почему полиция подозревает, что она была похищена ими? И случайно ли в ее жизни появляется новая подруга, начинающая актриса Бетти? Качество: BDRip 1080p Формат: AVC (библиотека кодирования x.264) Контейнер (Расширение): MKV Видео: 1920x1038, 13000 Кбит/сек, 23,976 кадр/сек, 0,272 Бит/ Аудио №1: русский / AC3 / 5.1 / 48 kHz / 384 kbps / 16 bit |Дублированный| Аудио №2: русский / AC3 / 5.1 / 48 kHz / 640 kbps / 16 bit |Двухголосый закадровый, Видеосервис| Аудио №3: русский / AC3 / 5.1 / 48 kHz / 640 kbps / 16 bit |Двухголосый закадровый, Карусель| Аудио №4: русский / AC3 / 5.1 / 48 kHz / 640 kbps / 16 bit |Двухголосый закадровый, П.Гланц и И.Королева| Аудио №5: русский / AC3 / 5.1 / 48 kHz / 448 kbps / 16 bit |Двухголосый закадровый, CP Digital| Аудио №6: русский / AC3 / 5.1 / 48 kHz / 640 kbps / 16 bit |Авторский, Ю.Сербин| Аудио №7: русский / AC3 / 5.1 / 48 kHz / 640 kbps / 16 bit |Авторский, Ю.Живов| Аудио №8: русский / AC3 / 5.1 / 48 kHz / 640 kbps / 16 bit |Авторский, В.Горчаков| Аудио №9: русский / AC3 / 2.0 / 48 kHz / 192 kbps / 16 bit |Авторский, С.Визгунов| Аудио №10: английский / AC3 / 5.1 / 48 kHz / 640 kbps / 16 bit Субтитры: русские (3вида), английские Навигация по главам(Чаптеры): есть Продолжительность: 02:26:34 Автор рипа: Сообщество:
[+] MediaInfo Format : Matroska Format version : Version 2 File size : 18.9 GiB Duration : 2h 26mn Overall bit rate : 18.5 Mbps Movie name : Malholland Drajv.(2001).BDRip.1080p. Encoded date : UTC 2015-06-10 08:37:06 Writing application : mkvmerge v5.8.0 ('No Sleep / Pillow') built on Sep 2 2012 15:37:04 Writing library : libebml v1.2.3 + libmatroska v1.3.0 Video ID : 1 Format : AVC Format/Info : Advanced Video Codec Format profile : High@L4.1 Format settings, CABAC : Yes Format settings, ReFrames : 4 frames Codec ID : V_MPEG4/ISO/AVC Duration : 2h 26mn Bit rate : 13.0 Mbps Width : 1 920 pixels Height : 1 038 pixels Display aspect ratio : 1.850 Frame rate : 23.976 fps Color space : YUV Chroma subsampling : 4:2:0 Bit depth : 8 bits Scan type : Progressive Bits/(Pixel*Frame) : 0.272 Stream size : 12.9 GiB (68%) Title : Malholland Drajv.(2001).BDRip.1080p. Writing library : x264 core 146 r2538 121396c Encoding settings : cabac=1 / ref=4 / deblock=1:-3:-3 / analyse=0x3:0x133 / me=umh / subme=11 / psy=1 / psy_rd=1.00:0.05 / mixed_ref=1 / me_range=32 / chroma_me=1 / trellis=2 / 8x8dct=1 / cqm=0 / deadzone=21,11 / fast_pskip=0 / chroma_qp_offset=-3 / threads=6 / lookahead_threads=1 / sliced_threads=0 / nr=0 / decimate=1 / interlaced=0 / bluray_compat=0 / constrained_intra=0 / bframes=8 / b_pyramid=2 / b_adapt=2 / b_bias=0 / direct=3 / weightb=1 / open_gop=0 / weightp=2 / keyint=240 / keyint_min=23 / scenecut=40 / intra_refresh=0 / rc=2pass / mbtree=0 / bitrate=13000 / ratetol=1.0 / qcomp=0.60 / qpmin=0 / qpmax=69 / qpstep=4 / cplxblur=20.0 / qblur=0.5 / ip_ratio=1.40 / pb_ratio=1.30 / aq=1:0.90 Language : English Default : Yes Forced : No Audio #1 ID : 2 Format : AC-3 Format/Info : Audio Coding 3 Mode extension : CM (complete main) Codec ID : A_AC3 Duration : 2h 26mn Bit rate mode : Constant Bit rate : 384 Kbps Channel(s) : 6 channels Channel positions : Front: L C R, Side: L R, LFE Sampling rate : 48.0 KHz Bit depth : 16 bits Compression mode : Lossy Stream size : 403 MiB (2%) Title : Дублированный,R5 Language : Russian Default : Yes Forced : No Audio #2 ID : 3 Format : AC-3 Format/Info : Audio Coding 3 Mode extension : CM (complete main) Codec ID : A_AC3 Duration : 2h 26mn Bit rate mode : Constant Bit rate : 640 Kbps Channel(s) : 6 channels Channel positions : Front: L C R, Side: L R, LFE Sampling rate : 48.0 KHz Bit depth : 16 bits Compression mode : Lossy Stream size : 671 MiB (3%) Title : Двухголосый закадровый, Видеосервис Language : Russian Default : No Forced : No Audio #3 ID : 4 Format : AC-3 Format/Info : Audio Coding 3 Mode extension : CM (complete main) Codec ID : A_AC3 Duration : 2h 26mn Bit rate mode : Constant Bit rate : 640 Kbps Channel(s) : 6 channels Channel positions : Front: L C R, Side: L R, LFE Sampling rate : 48.0 KHz Bit depth : 16 bits Compression mode : Lossy Stream size : 671 MiB (3%) Title : Двухголосый закадровый, Карусель Language : Russian Default : No Forced : No Audio #4 ID : 5 Format : AC-3 Format/Info : Audio Coding 3 Mode extension : CM (complete main) Codec ID : A_AC3 Duration : 2h 26mn Bit rate mode : Constant Bit rate : 640 Kbps Channel(s) : 6 channels Channel positions : Front: L C R, Side: L R, LFE Sampling rate : 48.0 KHz Bit depth : 16 bits Compression mode : Lossy Stream size : 671 MiB (3%) Title : Двухголосый закадровый, П.Гланц и И.Королева Language : Russian Default : No Forced : No Audio #5 ID : 6 Format : AC-3 Format/Info : Audio Coding 3 Mode extension : CM (complete main) Codec ID : A_AC3 Duration : 2h 26mn Bit rate mode : Constant Bit rate : 448 Kbps Channel(s) : 6 channels Channel positions : Front: L C R, Side: L R, LFE Sampling rate : 48.0 KHz Bit depth : 16 bits Compression mode : Lossy Stream size : 470 MiB (2%) Title : Двухголосый закадровый, CP Digital Language : Russian Default : No Forced : No Audio #6 ID : 7 Format : AC-3 Format/Info : Audio Coding 3 Mode extension : CM (complete main) Codec ID : A_AC3 Duration : 2h 26mn Bit rate mode : Constant Bit rate : 640 Kbps Channel(s) : 6 channels Channel positions : Front: L C R, Side: L R, LFE Sampling rate : 48.0 KHz Bit depth : 16 bits Compression mode : Lossy Stream size : 671 MiB (3%) Title : Авторский, Ю.Сербин Language : Russian Default : No Forced : No Audio #7 ID : 8 Format : AC-3 Format/Info : Audio Coding 3 Mode extension : CM (complete main) Codec ID : A_AC3 Duration : 2h 26mn Bit rate mode : Constant Bit rate : 640 Kbps Channel(s) : 6 channels Channel positions : Front: L C R, Side: L R, LFE Sampling rate : 48.0 KHz Bit depth : 16 bits Compression mode : Lossy Stream size : 671 MiB (3%) Title : Авторский, Ю.Живов Language : Russian Default : No Forced : No Audio #8 ID : 9 Format : AC-3 Format/Info : Audio Coding 3 Mode extension : CM (complete main) Codec ID : A_AC3 Duration : 2h 26mn Bit rate mode : Constant Bit rate : 640 Kbps Channel(s) : 6 channels Channel positions : Front: L C R, Side: L R, LFE Sampling rate : 48.0 KHz Bit depth : 16 bits Compression mode : Lossy Stream size : 671 MiB (3%) Title : Авторский, В.Горчаков Language : Russian Default : No Forced : No Audio #9 ID : 10 Format : AC-3 Format/Info : Audio Coding 3 Mode extension : CM (complete main) Codec ID : A_AC3 Duration : 2h 26mn Bit rate mode : Constant Bit rate : 192 Kbps Channel(s) : 2 channels Channel positions : Front: L R Sampling rate : 48.0 KHz Bit depth : 16 bits Compression mode : Lossy Stream size : 201 MiB (1%) Title : Авторский, С.Визгунов Language : Russian Default : No Forced : No Audio #10 ID : 11 Format : AC-3 Format/Info : Audio Coding 3 Mode extension : CM (complete main) Codec ID : A_AC3 Duration : 2h 26mn Bit rate mode : Constant Bit rate : 640 Kbps Channel(s) : 6 channels Channel positions : Front: L C R, Side: L R, LFE Sampling rate : 48.0 KHz Bit depth : 16 bits Compression mode : Lossy Stream size : 671 MiB (3%) Language : English Default : No Forced : No Text #1 ID : 12 Format : UTF-8 Codec ID : S_TEXT/UTF8 Codec ID/Info : UTF-8 Plain Text Title : v1 Language : Russian Default : No Forced : No Text #2 ID : 13 Format : UTF-8 Codec ID : S_TEXT/UTF8 Codec ID/Info : UTF-8 Plain Text Title : v2 Language : Russian Default : No Forced : No Text #3 ID : 14 Format : UTF-8 Codec ID : S_TEXT/UTF8 Codec ID/Info : UTF-8 Plain Text Title : v3 Language : Russian Default : No Forced : No Text #4 ID : 15 Format : UTF-8 Codec ID : S_TEXT/UTF8 Codec ID/Info : UTF-8 Plain Text Language : English Default : No Forced : No Menu 00:00:00.000 : en:00:00:00.000 00:01:19.037 : en:00:01:19.037 00:02:23.894 : en:00:02:23.894 00:07:13.767 : en:00:07:13.767 00:09:25.356 : en:00:09:25.356 00:11:11.337 : en:00:11:11.337 00:11:40.533 : en:00:11:40.533 00:15:01.734 : en:00:15:01.734 00:15:19.585 : en:00:15:19.585 00:16:42.210 : en:00:16:42.210 00:17:43.312 : en:00:17:43.312 00:17:49.944 : en:00:17:49.944 00:19:55.778 : en:00:19:55.778 00:21:55.147 : en:00:21:55.147 00:23:29.533 : en:00:23:29.533 00:25:04.420 : en:00:25:04.420 00:27:26.478 : en:00:27:26.478 00:28:20.699 : en:00:28:20.699 00:31:00.609 : en:00:31:00.609 00:34:53.466 : en:00:34:53.466 00:36:21.054 : en:00:36:21.054 00:40:52.367 : en:00:40:52.367 00:43:06.709 : en:00:43:06.709 00:44:22.910 : en:00:44:22.910 00:44:46.350 : en:00:44:46.350 00:48:32.993 : en:00:48:32.993 00:53:06.392 : en:00:53:06.392 00:54:09.037 : en:00:54:09.037 00:55:32.246 : en:00:55:32.246 00:57:41.958 : en:00:57:41.958 00:59:33.361 : en:00:59:33.361 01:05:21.501 : en:01:05:21.501 01:05:57.954 : en:01:05:57.954 01:09:15.818 : en:01:09:15.818 01:10:58.963 : en:01:10:58.963 01:13:24.817 : en:01:13:24.817 01:27:26.533 : en:01:27:26.533 01:37:27.550 : en:01:37:27.550 01:43:44.385 : en:01:43:44.385 01:44:42.485 : en:01:44:42.485 01:52:12.434 : en:01:52:12.434 01:52:55.602 : en:01:52:55.602 01:56:14.050 : en:01:56:14.050 01:57:45.558 : en:01:57:45.558 01:58:51.041 : en:01:58:51.041 02:00:40.733 : en:02:00:40.733 02:06:40.092 : en:02:06:40.092 02:08:03.593 : en:02:08:03.593 02:14:15.422 : en:02:14:15.422 02:14:51.625 : en:02:14:51.625 02:16:08.535 : en:02:16:08.535 02:16:54.373 : en:02:16:54.373 02:17:27.239 : en:02:17:27.239 02:18:52.324 : en:02:18:52.324 02:18:58.622 : en:02:18:58.622 02:19:05.546 : en:02:19:05.546
[+] x264 x264 : frame I:1159 Avg QP:14.26 size:294642 x264 : frame P:45392 Avg QP:16.10 size:130623 x264 : frame B:164306 Avg QP:18.33 size: 48784
[+] Скриншоты

Всего файлов в раздаче: 1 
Malholland Drajv.(2001).BDRip.1080p.[denis100].mkv18.95 GB

Комментарии

FautSA
Один из любимых фильмов Девида Линча! Спасибо!


Зарегистрируйтесь чтобы добавить комментарий
Торрент клиент
byTorrent - программа для загрузки торрент-файлов.

Скачать byTorrent.exe (1,5 МБ)

Скачать byTorrent.zip (0,6 МБ)

Поддержи torrent.by
российских рублей
(300 российских рублей это 4$)

Обратная связь rss

End game ©