↑↓torrent.by
Поиск
Логин:  Регистрация
Пароль:

Парк Юрского периода 3 / Jurassic Park III (2001) BDRip от New-Team | D

download Скачать торрент-файл   magnet Магнитная ссылка Размер: 744.64 MB Добавлен: 2024-03-20 05:00
Пиры будут получены из сети DHT
Последний сидер был замечен 2024-03-20 05:00
Страна: США Производство: Amblin Entertainment, Universal Pictures Жанр: фантастика, боевик, приключения Год выпуска: 2001 Продолжительность: 01:32:20 Перевод: Профессиональный (полное дублирование) Оригинальная аудиодорожка: нет Cубтитры: нет Режиссер: Джо Джонстон / Joe Johnston В ролях: Сэм Нил, Уильям Х. Мэйси, Теа Леони, Алессандро Нивола, Тревор Морган, Майкл Джитер, Джон Дил, Брюс А. Янг, Лора Дерн, Тейлор Николс... Подробнее об актерах Роли дублировали: Дальвин Щербаков, Владимир Зайцев, Ольга Кузнецова, Денис Беспалый, Степан Балабанов... Описание: Герой Сэма Нила, палеонтолог Алан Грант, принимает предложение состоятельного предпринимателя совершить обзорную экскурсию над печально знаменитым островом Сорна на специально нанятом самолете. Мог ли доктор Грант предполагать, что страшная, непредвиденная катастрофа снова заставит его столкнуться со свирепыми плотоядными существами из прошлого?! Практически сразу после посадки группу атакует спинозавр, и Грант и его компания остаются без возможности покинуть остров. Исходник: BDRemux 1080p Тип релиза: BDRip Контейнер: AVI Видео: 720x384 (1,85:1), 23,976 кадра/сек, XviD 73 ~ 928 кбит/сек, 0.140 бит/пиксель Аудио: 48 кГц, Dolby Digital AC3 2.0, 192 кбит/сек Раздача от:
[+] MediaInfo Общее Полное имя : Парк Юрского периода 3.2001.BDRip__by_AVP_Studio.avi Формат : AVI Формат/Информация : Audio Video Interleave Настройки формата : BitmapInfoHeader / WaveFormatEx Размер файла : 745 Мбайт Продолжительность : 1 ч. 32 м. Общий поток : 1 129 Кбит/сек Частота кадров : 23,976 кадра/сек Программа кодирования : VirtualDubMod 1.5.10.3 | www.virtualdub-fr.org || (build 2550/release) Библиотека кодирования : VirtualDubMod build 2550/release Видео Идентификатор : 0 Формат : MPEG-4 Visual Профиль формата : Advanced Simple@L5 Настройки формата : BVOP1 / Custom Matrix Параметр BVOP формата : 1 Параметр QPel формата : Нет Параметр GMC формата : Без точки перехода Параметр матрицы формата : Выборочная Идентификатор кодека : XVID Идентификатор кодека/Подсказка : XviD Продолжительность : 1 ч. 32 м. Битрейт : 928 Кбит/сек Ширина : 720 пикселей Высота : 384 пикселя Соотношение сторон : 1,85:1 Частота кадров : 23,976 (24000/1001) кадра/сек Цветовое пространство : YUV Субдискретизация насыщенности : 4:2:0 Битовая глубина : 8 бит Тип развёртки : Прогрессивная Метод сжатия : С потерями Бит/(Пиксели*Кадры) : 0.140 Размер потока : 612 Мбайт (82%) Библиотека кодирования : XviD 73 Аудио Идентификатор : 1 Формат : AC-3 Формат/Информация : Audio Coding 3 Коммерческое название : Dolby Digital Идентификатор кодека : 2000 Продолжительность : 1 ч. 32 м. Вид битрейта : Постоянный Битрейт : 192 Кбит/сек Каналы : 2 канала Channel layout : L R Частота : 48,0 КГц Частота кадров : 31,250 кадров/сек (1536 SPF) Метод сжатия : С потерями Размер потока : 127 Мбайт (17%) Выравнивание : Разделение по промежуткам Продолжительность промежутка : 42 мс. (1,00 видеокадр) Время предзагрузки промежутка : 500 мс
[+] Скриншоты

Всего файлов в раздаче: 1 
Парк Юрского периода 3.2001.BDRip_[New-team]_by_AVP_Studio.avi744.64 MB

Похожие раздачи по запросу - Парк
2024-03-20 magnet Парк Юрского периода 3 / Jurassic Park III (2001) BDRip 720p от New-Team | D, P 2.91 GB ↑ 0 ↓ 0
2024-03-20 magnet Парк Юрского периода 3 / Jurassic Park III (2001) BDRip-AVC от New-Team | D 2.18 GB ↑ 0 ↓ 0
2024-03-17 magnet Парк Юрского периода / Jurassic Park (Стивен Спилберг (1993) BDRip-AVC от New-Team | D 2.91 GB ↑ 0 ↓ 0
2024-03-16 magnet Парк Юрского периода / Jurassic Park (Стивен Спилберг (1993) BDRip от New-Team | D 1.09 GB ↑ 0 ↓ 0

Комментарии


Зарегистрируйтесь чтобы добавить комментарий
Торрент клиент
byTorrent - программа для загрузки торрент-файлов.

Скачать byTorrent.exe (1,5 МБ)

Скачать byTorrent.zip (0,6 МБ)

Поддержи torrent.by
российских рублей
(300 российских рублей это 4$)

Обратная связь rss

End game ©