↑↓torrent.by
Поиск
Логин:  Регистрация
Пароль:

Ничья земля / No Man's Land (1987) BDRip от ExKinoRay | P2

download Скачать торрент-файл   magnet Магнитная ссылка Размер: 1.46 GB Добавлен: 2024-03-20 05:00
Пиры будут получены из сети DHT
Последний сидер был замечен 2024-03-28 17:26
Страна: США Жанр: триллер, драма, криминал Год выпуска: 1987 Продолжительность: 01:46:22 Перевод: Профессиональный (двухголосый закадровый) НТВ+ Субтитры: нет Режиссер: Питер Вернер / Peter Werner В ролях: Чарли Шин, Д.Б. Суини, Лара Харрис, Рэнди Куэйд, Билл Дьюк, Р.Д. Колл, Арлен Дин Снайдер, М. Эммет Уолш, Эл Шэннон, Берни Пок, Кенни Эндосо, Джеймс Ф. Келли, Лори Батлер, Клер Рен, Филип Бенишу Описание: По статистике в Америке каждые 29 секунд угоняют машину. Затем ее разбирают и продают на запчасти. В этом мелодраматическом триллере лос-анджелесский полицейский, проникший в банду автоворов, поддается очарованию ее лидера и влюбляется в его сестру. Далее разыгрывается тема кошки и мышки, декорированная автомобильными погонями и выделяющаяся замечательной игрой Шина в роли главаря и юного Суини в роли полицейского. Релиз от: by Исходник: No.Man's.Land.1987.GER.BDremux.Films.Club Качество видео: BDRip Формат видео: AVI Видео: 704x384 (1.85:1), 23.976 fps, XviD build 73 ~1768 kbps avg, 0.273 bit/pixel Аудио: 48 kHz, AC3 Dolby Digital, 2/0 (L,R) ch, ~192 kbps
[+] MediaInfo General Complete name : C:ИгрыNo.Mans.Land.1987.ExKinoRay.Райдэн.avi Format : AVI Format/Info : Audio Video Interleave Format settings : BitmapInfoHeader / WaveFormatEx File size : 1.46 GiB Duration : 1 h 46 min Overall bit rate : 1 969 kb/s Frame rate : 23.976 FPS Writing application : VirtualDubMod 1.5.10.3 | www.virtualdub-fr.org || (build 2550/release) Writing library : VirtualDubMod build 2550/release Video ID : 0 Format : MPEG-4 Visual Format profile : Advanced Simple@L5 Format settings : BVOP1 / Custom Matrix Format settings, BVOP : 1 Format settings, QPel : No Format settings, GMC : No warppoints Format settings, Matrix : Custom Codec ID : XVID Codec ID/Hint : XviD Duration : 1 h 46 min Bit rate : 1 768 kb/s Width : 704 pixels Height : 384 pixels Display aspect ratio : 1.85:1 Frame rate : 23.976 (24000/1001) FPS Color space : YUV Chroma subsampling : 4:2:0 Bit depth : 8 bits Scan type : Progressive Compression mode : Lossy Bits/(Pixel*Frame) : 0.273 Stream size : 1.31 GiB (90%) Writing library : XviD 73 Audio ID : 1 Format : AC-3 Format/Info : Audio Coding 3 Commercial name : Dolby Digital Codec ID : 2000 Duration : 1 h 46 min Bit rate mode : Constant Bit rate : 192 kb/s Channel(s) : 2 channels Channel layout : L R Sampling rate : 48.0 kHz Frame rate : 31.250 FPS (1536 SPF) Compression mode : Lossy Stream size : 146 MiB (10%) Alignment : Split across interleaves Interleave, duration : 42 ms (1.00 video frame) Interleave, preload duration : 500 ms Service kind : Complete Main
[+] Скриншоты

Всего файлов в раздаче: 1 
No.Mans.Land.1987.ExKinoRay.Райдэн.avi1.46 GB

Комментарии


Зарегистрируйтесь чтобы добавить комментарий
Торрент клиент
byTorrent - программа для загрузки торрент-файлов.

Скачать byTorrent.exe (1,5 МБ)

Скачать byTorrent.zip (0,6 МБ)

Поддержи torrent.by
российских рублей
(300 российских рублей это 4$)

Обратная связь rss

End game ©