↑↓torrent.by
Поиск
Логин:  Регистрация
Пароль:

Пятница 13-е: Кровь Роуз / Rose Blood: A Friday the 13th Fan Film (2021) WEB-DL 1080p | L1

download Скачать торрент-файл   magnet Магнитная ссылка Размер: 3.37 GB Добавлен: 2024-03-20 05:00
Пиры будут получены из сети DHT
Последний сидер был замечен 2024-03-23 09:29
Информация о фильме Название: Пятница 13-е: Кровь Роуз Оригинальное название: Rose Blood: A Friday the 13th Fan Film Год выхода: 2021 Жанр: ужасы Режиссер: Питер Энтони В ролях: Лар Парк-Линкольн, Терри Кайзер, Кевин Спиртас, Санаэ Лутсис, Дэвид Е. МакМахон, Джейсон Брукс, Томми Ли Драйвер, Питер Энтони О фильме: Действие фильма происходит спустя 13 месяцев после событий фильма "Пятница 13-е – Часть 7: Новая Кровь". Тину Шепард держат в плену в печально известном Исследовательском Центре "Кристал Лейк". Доктор Сайкс под руководством генерала Брэкбауэра потерпел неудачу в своих попытках использовать телепатическую силу Тины. Генерал устал от отсутствия прогресса и нашёл новую Тину. Новую кровь. Роуз. Похоже, Роуз ещё более могущественна, чем Тина. У генерала есть план для них обеих. Его запасной вариант? Группа "F.A.A.S.T." – высококвалифицированные наёмники с одной миссией: поимка Джейсона Вурхиза. Удастся ли Тине и Роуз избежать плана злобного генерала Брэкбауэра? Или Джейсон вмешается, чтобы устроить ещё одну бойню? Страна: США Студия: Peter Anthony Productions Продолжительность: 01:31:18 Перевод: Любительский одноголосый - (datynet) Файл Кодек: H.264 Качество: WEB-DL 1080p | L1 Видео: 1920x816 (2.40:1), 24.000 fps, MPEG4 Video (H264) High@L4 ~ 5 090 kbps avg Звук: AC3, 192 Kb/s (2 ch)
[+] MediaInfoGeneral Unique ID : 272449819754833087185068168183705906672 (0xCCF7ED37068CD037F3719B3DA76A2DF0) Complete name : D:Rose Blood A Friday the 13th Fan Film (2021).mkv Format : Matroska Format version : Version 4 / Version 2 File size : 3.37 GiB Duration : 1 h 31 min Overall bit rate : 5 284 kb/s Encoded date : UTC 2024-03-19 11:46:54 Writing application : mkvmerge v81.0 ('Milliontown') 64-bit Writing library : libebml v1.4.4 + libmatroska v1.7.1 Video ID : 1 Format : AVC Format/Info : Advanced Video Codec Format profile : High@L4 Format settings : CABAC / 4 Ref Frames Format settings, CABAC : Yes Format settings, ReFrames : 4 frames Codec ID : V_MPEG4/ISO/AVC Duration : 1 h 31 min Bit rate : 5 090 kb/s Width : 1 920 pixels Height : 816 pixels Display aspect ratio : 2.35:1 Frame rate mode : Constant Frame rate : 24.000 FPS Color space : YUV Chroma subsampling : 4:2:0 Bit depth : 8 bits Scan type : Progressive Bits/(Pixel*Frame) : 0.135 Stream size : 3.25 GiB (96%) Default : Yes Forced : No Color range : Limited Color primaries : BT.709 Transfer characteristics : BT.709 Matrix coefficients : BT.709 Audio ID : 2 Format : AC-3 Format/Info : Audio Coding 3 Codec ID : A_AC3 Duration : 1 h 31 min Bit rate mode : Constant Bit rate : 192 kb/s Channel(s) : 2 channels Channel positions : Front: L R Sampling rate : 48.0 kHz Frame rate : 31.250 FPS (1536 SPF) Bit depth : 16 bits Compression mode : Lossy Stream size : 125 MiB (4%) Service kind : Complete Main Default : Yes Forced : No
[+] Скриншоты

Всего файлов в раздаче: 1 
Rose Blood A Friday the 13th Fan Film (2021).mkv3.37 GB

Комментарии


Зарегистрируйтесь чтобы добавить комментарий
Торрент клиент
byTorrent - программа для загрузки торрент-файлов.

Скачать byTorrent.exe (1,5 МБ)

Скачать byTorrent.zip (0,6 МБ)

Поддержи torrent.by
российских рублей
(300 российских рублей это 4$)

Обратная связь rss

End game ©