↑↓torrent.by
Поиск
Логин:  Регистрация
Пароль:

Курьеры [S01] (2024) WEBRip-AVC от Generalfilm | КПК

download Скачать торрент-файл   magnet Магнитная ссылка Размер: 1.37 GB Добавлен: 2024-03-20 05:00
Пиры будут получены из сети DHT
Последний сидер был замечен сегодня в 09:34
Информация о фильме Оригинальное название: Курьеры Год выхода: 2024 Жанр: Комедия, драма Режиссёр: Илья Максимов В ролях: Владислав Тирон, Милана Бру, Константин Крюков, Ольга Погодина, Роман Маякин, Кристина Кукас, Амаду Мамадаков, Давид Сократян, Валентин Смирнитский, Татьяна Кравченко, Ольга Медынич, Раиса Рязанова, Алексей Воробьёв, Анфиса Чехова, Евгений Ребров, Илхомджон Абдурахмонов, Фируза Саидова, Сергей Дьяков, Евгений Харитонов, Владимир Виноградов, Юлия Куварзина, Иван Чернов, Кирилл Шварценберг, Станислав Бондаренко, Михаил Филиппов О сериале: 20-летний Гоша, родившийся в обеспеченной московской семье, «просиживает» штаны на 4 курсе медицинского университета, но очень хочет стать режиссером. Однажды он заявляет матери, что бросает медицинский и будет поступать в киношколу. Мать готова позволить сыну осуществить мечту, но только если он докажет, что сможет хотя бы три месяца прожить без гарантированной финансовой поддержки. В результате, взрослая жизнь обрушивается на вчерашнего подростка: ему нужно, как минимум, найти жилье и заработать хоть какие-то деньги на пропитание. Гоша устраивается курьером в службу доставки, и у него начинается совсем другая жизнь, к которой он оказывается абсолютно не приспособлен. Но постепенно Гоша начинает меняться, хотя все время попадает в нелепые и смешные ситуации. Именно среди курьеров Гоша находит настоящих друзей и свою большую любовь. А тут еще Гоша узнает, что его отец, которого он считал погибшим, жив, знаменит, и ничего пока не знает о сыне, работающем теперь простым курьером. Страна: Россия Студия: Кинокомпания "Институт развития интернета", "МТС Медиа", "Пиманов и партнеры" Продолжительность: 8 x ~ 00:37:00 Перевод: Не требуется Файл Формат: MP4 Качество: WEBRip-AVC Видео: MPEG-4 AVC (x264), 640x272, ~ 500 kbps, 25.000 fps Аудио: AAC LC, 48.0 KHz, 2 ch, 128 Kbps Субтитры: Нет
[+] Скриншоты
[+] MIComplete name : D:киноKur'ery.S01.2024.WEBRip-AVC.KPK.GFKur'ery.s01e02.2024.WEBRip-AVC.KPK.GF.mp4 Format : MPEG-4 Codec ID : M4V (isom/iso2/avc1) File size : 172 MiB Duration : 37mn 56s Overall bit rate mode : Variable Overall bit rate : 634 Kbps Writing application : Lavf53.19.0 Video ID : 1 Format : AVC Format/Info : Advanced Video Codec Format profile : High@L4.1 Format settings, CABAC : Yes Format settings, ReFrames : 8 frames Codec ID : avc1 Codec ID/Info : Advanced Video Coding Duration : 37mn 56s Bit rate : 500 Kbps Width : 640 pixels Height : 272 pixels Display aspect ratio : 2.35:1 Frame rate mode : Constant Frame rate : 25.000 fps Color space : YUV Chroma subsampling : 4:2:0 Bit depth : 8 bits Scan type : Progressive Bits/(Pixel*Frame) : 0.115 Stream size : 136 MiB (79%) Writing library : x264 core 146 r2538 121396c Encoding settings : cabac=1 / ref=8 / deblock=1:-1:-1 / analyse=0x3:0x133 / me=umh / subme=10 / psy=1 / psy_rd=1.00:0.00 / mixed_ref=1 / me_range=24 / chroma_me=1 / trellis=2 / 8x8dct=1 / cqm=0 / deadzone=21,11 / fast_pskip=1 / chroma_qp_offset=-2 / threads=3 / lookahead_threads=1 / sliced_threads=0 / nr=0 / decimate=1 / interlaced=0 / bluray_compat=0 / constrained_intra=0 / bframes=8 / b_pyramid=2 / b_adapt=2 / b_bias=0 / direct=3 / weightb=1 / open_gop=0 / weightp=2 / keyint=250 / keyint_min=126 / scenecut=40 / intra_refresh=0 / rc_lookahead=40 / rc=2pass / mbtree=1 / bitrate=500 / ratetol=1.0 / qcomp=0.60 / qpmin=0 / qpmax=69 / qpstep=4 / cplxblur=20.0 / qblur=0.5 / ip_ratio=1.40 / aq=1:1.00 Menus : 3 Audio ID : 2 Format : AAC Format/Info : Advanced Audio Codec Format profile : LC Codec ID : 40 Duration : 37mn 56s Bit rate mode : Variable Bit rate : 128 Kbps Channel(s) : 2 channels Channel positions : Front: L R Sampling rate : 48.0 KHz Frame rate : 46.875 fps (1024 spf) Compression mode : Lossy Stream size : 34.7 MiB (20%) Default : Yes Alternate group : 1 Menus : 3
Релиз от:

Всего файлов в раздаче: 8 
Kur'ery.s01e01.2024.WEBRip-AVC.KPK.GF.mp4170.92 MB
Kur'ery.s01e02.2024.WEBRip-AVC.KPK.GF.mp4171.99 MB
Kur'ery.s01e03.2024.WEBRip-AVC.KPK.GF.mp4170.57 MB
Kur'ery.s01e04.2024.WEBRip-AVC.KPK.GF.mp4178.57 MB
Kur'ery.s01e05.2024.WEBRip-AVC.KPK.GF.mp4181.79 MB
Kur'ery.s01e06.2024.WEBRip-AVC.KPK.GF.mp4185.38 MB
Kur'ery.s01e07.2024.WEBRip-AVC.KPK.GF.mp4176.87 MB
Kur'ery.s01e08.2024.WEBRip-AVC.KPK.GF.mp4167.71 MB

Похожие раздачи по запросу - Курьеры
2024-03-19 magnet Курьеры [S01] (2024) WEB-DLRip 720p от ExKinoRay 8.13 GB ↑ 0 ↓ 0
2024-03-18 magnet Курьеры [S01] (2024) WEBRip-AVC от Files-x 3.88 GB ↑ 0 ↓ 0
2024-03-18 magnet Курьеры [S01] (2024) WEBRip 4.01 GB ↑ 0 ↓ 0
2024-03-18 magnet Курьеры [S01] (2024) WEBRip 1080p 1К13.75 GB ↑ 0 ↓ 0
2024-03-11 magnet Курьеры [01х01-04 из 08] (2024) WEBRip-AVC от Files-x 1.91 GB ↑ 0 ↓ 0
2024-03-11 magnet Курьеры [01-04 из 08] (2024) WEBRip 1.98 GB ↑ 0 ↓ 0
2024-03-11 magnet Курьеры [01-04 из 08] (2024) WEBRip 1080p 6.78 GB ↑ 0 ↓ 0

Комментарии


Зарегистрируйтесь чтобы добавить комментарий
Торрент клиент
byTorrent - программа для загрузки торрент-файлов.

Скачать byTorrent.exe (1,5 МБ)

Скачать byTorrent.zip (0,6 МБ)

Поддержи torrent.by
российских рублей
(300 российских рублей это 4$)

Обратная связь rss

End game ©