↑↓torrent.by
Поиск
Логин:  Регистрация
Пароль:

Наследство [01-07 серии из 13] (2024) HDTV 1080p от Files-x

download Скачать торрент-файл   magnet Магнитная ссылка Размер: 8.03 GB Добавлен: 2024-03-20 05:00
Пиры будут получены из сети DHT
Последний сидер был замечен 2024-03-21 12:28
Информация о фильме Оригинальное название: Наследство Год выхода: 2024 Жанр: Комедия, криминал Режиссер: Аня Мирохина, Дмитрий Меняйло (II) В ролях: Нонна Гришаева, Александр Робак, Глеб Калюжный, Маргарита Аброськина, Анна Немченко, Роман Фомин, Алёна Бабенко, Владислав Ценёв, Елена Алфёрова, Сергей Нечипоренко, Олег Верещагин, Дмитрий Блохин, Егор Дружинин, Сергей Стёпин, Олег Евтеев О фильме: 25 лет назад Виктор, миллионер и авантюрист, бросил в Москве свою семью - жену и нескольких детей - и сбежал в Италию, скрываясь от уголовного преследования. Сегодня его родня живет в Реутове самой обычной скромной жизнью, собираясь на праздники и тихонько ворча друг на друга. В один из таких праздников к подъезду Татьяны, бывшей жены Виктора, прибывает шикарный автомобиль, а в нем - похожий на дона Корлеоне Виктор со своим водителем. Спустя долгие годы он захотел наладить отношения с семьей, а заодно раз и навсегда решить свои криминальные проблемы, "устранив" нужного человека. Страна: Россия Студия: ТНТ, PREMIER, LegioFelix Продолжительность: 7 x ~ 00:22:00 Перевод: Не требуется Файл Кодек: h.264 Качество: HDTV 1080p Видео: MPEG-4 AVC, ~ 6492 Кбит/с, 1920x1080, 25 кадр/с Звук: MP2, 2 ch, 192 Кбит/с
[+] Скриншоты
[+] MediaInfo General ID : 1 (0x1) Complete name : C:01.Наследство.s01.E01.(2024).HDTV.(1080р).by.Nicodem.Files-x.ts Format : MPEG-TS File size : 1.16 GiB Duration : 23mn 41s Overall bit rate : 7 034 Kbps Maximum Overall bit rate : 35.5 Mbps Video ID : 4113 (0x1011) Menu ID : 1 (0x1) Format : AVC Format/Info : Advanced Video Codec Format profile : High@L4.1 Format settings, CABAC : No Format settings, ReFrames : 3 frames Codec ID : 27 Duration : 23mn 41s Bit rate mode : Variable Bit rate : 6 492 Kbps Maximum bit rate : 40.0 Mbps Width : 1 920 pixels Height : 1 080 pixels Display aspect ratio : 16:9 Frame rate : 25.000 fps Color space : YUV Chroma subsampling : 4:2:0 Bit depth : 8 bits Scan type : Progressive Bits/(Pixel*Frame) : 0.125 Stream size : 1.07 GiB (92%) Language : English Audio ID : 4352 (0x1100) Menu ID : 1 (0x1) Format : MPEG Audio Format version : Version 1 Format profile : Layer 2 Codec ID : 4 Duration : 23mn 41s Bit rate mode : Constant Bit rate : 192 Kbps Channel(s) : 2 channels Sampling rate : 48.0 KHz Compression mode : Lossy Stream size : 32.5 MiB (3%)
Релиз от:

Всего файлов в раздаче: 7 
01.Наследство.s01.E01.(2024).HDTV.(1080р).by.Nicodem.Files-x.ts1.16 GB
02.Наследство.s01.E02.(2024).HDTV.(1080р).by.Nicodem.Files-x.ts1.24 GB
03.Наследство.s01.E03.(2024).HDTV.(1080р).by.Nicodem.Files-x.ts1.11 GB
04.Наследство.s01.E04.(2024).HDTV.(1080р).by.Nicodem.Files-x.ts1.12 GB
05.Наследство.s01.E05.(2024).HDTV.(1080р).by.Nicodem.Files-x.ts1.13 GB
06.Наследство.s01.E06.(2024).HDTV.(1080р).by.Nicodem.Files-x.ts1.14 GB
07.Наследство.s01.E07.(2024).HDTV.(1080р).by.Nicodem.Files-x.ts1.13 GB

Похожие раздачи по запросу - Наследство
2024-03-25 magnet Наследство [S01] (2024) WEB-DLRip-AVC от Generalfilm | КПК 1.34 GB ↑ 0 ↓ 0
2024-03-23 magnet Наследство [S01] (2024) WEB-DLRip-AVC от Files-x 3.79 GB ↑ 0 ↓ 0
2024-03-22 magnet Наследство [S01] (2024) WEB-DL 720p от ExKinoRay 7.28 GB ↑ 0 ↓ 0
2024-03-22 magnet Наследство [S01] (2024) WEB-DL 1080p от ExKinoRay 11.61 GB ↑ 0 ↓ 0
2024-03-22 magnet Наследство [S01] (2024) WEB-DL 1080p 11.07 GB ↑ 0 ↓ 0
2024-03-22 magnet Наследство [S01] (2024) HDTV 1080p от Files-x 14.74 GB ↑ 0 ↓ 0
2024-03-22 magnet Наследство [S01] (2024) WEB-DLRip 3.83 GB ↑ 0 ↓ 0

Комментарии


Зарегистрируйтесь чтобы добавить комментарий
Торрент клиент
byTorrent - программа для загрузки торрент-файлов.

Скачать byTorrent.exe (1,5 МБ)

Скачать byTorrent.zip (0,6 МБ)

Поддержи torrent.by
российских рублей
(300 российских рублей это 4$)

Обратная связь rss

End game ©