↑↓torrent.by
Поиск
Логин:  Регистрация
Пароль:

Миссия в Москве / Mo Si Ke xing dong / 93 guo ji lie che da jie an: Mosike xing dong (2023) WEB-DLRip-AVC от DoMiNo & селезень | D | Локализованная версия

download Скачать торрент-файл   magnet Магнитная ссылка Размер: 1.85 GB Добавлен: 2024-03-20 05:00
Пиры будут получены из сети DHT
Последний сидер был замечен 2024-04-06 17:57
Информация о фильме Название: Миссия в Москве Оригинальное название: Mo Si Ke xing dong / 93 guo ji lie che da jie an: Mosike xing dong Год выхода: 2023 Жанр: Боевик, криминал, детектив Режиссер: Герман Яу В ролях: Чжан Ханьюй, Энди Лау, Хуан Сюань, Дженис Мань, Джейсон Гу, Чжао Бинжуй, Бай Нарису, Чжан Бэньюй, Шан Юйсянь, Зина Блахусов О фильме: 1993 год. Группа китайских оперативников под прикрытием отправляется в Москву, чтобы поймать банду преступников, грабящих поезда маршрута К3 «Пекин — Москва». Страна: Китай, Россия Студия: CMC Pictures, Эталон-фильм, Gravity Pictures Продолжительность: 01:57:21 Перевод: Дублированный | Футурум Субтитры: Русские (Forced -хардсаб, Full) Файл Формат: Matroska Качество: WEB-DLRip-AVC | Локализованная версия Видео: 1024x426 at 25.000 fps, x264@L4.1, ~2065 kbps Аудио: AC3, 2 ch, ~192 kbps - | Русский | Формат субтитров: softsub (SRT) ***Рип от: -=DoMiNo=-
[+] M/IGeneral Unique ID : 142668214096714775854500208666883962584 (0x6B54E6084C2F06B51751F6DAC728B6D8) Complete name : R:Mo.Si.Ke.xing.dong.2023.DUB.WEB-DLRip.x264.seleZen.mkv Format : Matroska Format version : Version 4 File size : 1.85 GiB Duration : 1 h 57 min Overall bit rate : 2 260 kb/s Frame rate : 25.000 FPS Movie name : Mo.Si.Ke.xing.dong.2023.DUB.WEB-DLRip.x264.seleZen Encoded date : 2024-03-19 15:08:15 UTC Writing application : mkvmerge v83.0 ('Circle Of Friends') 64-bit Writing library : libebml v1.4.5 + libmatroska v1.7.1 Cover : Yes Attachments : cover.jpg / small_cover.jpg Video ID : 1 Format : AVC Format/Info : Advanced Video Codec Format profile : High@L4.1 Format settings : CABAC / 14 Ref Frames Format settings, CABAC : Yes Format settings, Reference : 14 frames Codec ID : V_MPEG4/ISO/AVC Duration : 1 h 57 min Bit rate : 2 065 kb/s Width : 1 024 pixels Height : 426 pixels Display aspect ratio : 2.40:1 Frame rate mode : Constant Frame rate : 25.000 FPS Color space : YUV Chroma subsampling : 4:2:0 Bit depth : 8 bits Scan type : Progressive Bits/(Pixel*Frame) : 0.189 Stream size : 1.69 GiB (91%) Title : -=DoMiNo=- Writing library : x264 core 164 r3186 -DoMiNo Encoding settings : cabac=1 / ref=14 / deblock=1:-2:-1 / analyse=0x3:0x133 / me=umh / subme=10 / psy=1 / psy_rd=1.00:0.15 / mixed_ref=1 / me_range=32 / chroma_me=1 / trellis=2 / 8x8dct=1 / cqm=0 / deadzone=21,11 / fast_pskip=0 / chroma_qp_offset=-3 / threads=13 / lookahead_threads=3 / sliced_threads=0 / nr=0 / decimate=0 / interlaced=0 / bluray_compat=0 / constrained_intra=0 / bframes=10 / b_pyramid=2 / b_adapt=2 / b_bias=0 / direct=3 / weightb=1 / open_gop=0 / weightp=2 / keyint=240 / keyint_min=24 / scenecut=40 / intra_refresh=0 / rc_lookahead=60 / rc=crf / mbtree=0 / crf=18.5 / qcomp=0.60 / qpmin=0 / qpmax=69 / qpstep=4 / vbv_maxrate=50000 / vbv_bufsize=62500 / crf_max=0.0 / nal_hrd=none / filler=0 / ip_ratio=1.33 / pb_ratio=1.30 / aq=3:0.90 Language : English Default : Yes Forced : No Color range : Limited Color primaries : BT.709 Transfer characteristics : BT.709 Matrix coefficients : BT.709 Audio ID : 2 Format : AC-3 Format/Info : Audio Coding 3 Commercial name : Dolby Digital Codec ID : A_AC3 Duration : 1 h 57 min Bit rate mode : Constant Bit rate : 192 kb/s Channel(s) : 2 channels Channel layout : L R Sampling rate : 48.0 kHz Frame rate : 31.250 FPS (1536 SPF) Compression mode : Lossy Stream size : 161 MiB (8%) Title : Дублированный | Футурум Language : Russian Service kind : Complete Main Default : Yes Forced : No Text ID : 3 Format : UTF-8 Codec ID : S_TEXT/UTF8 Codec ID/Info : UTF-8 Plain Text Duration : 1 h 46 min Bit rate : 62 b/s Frame rate : 0.193 FPS Count of elements : 1236 Stream size : 49.0 KiB (0%) Title : Full Language : Russian Default : No Forced : No
Релиз: Присоединяйся к: Кликай на баннеры.

Всего файлов в раздаче: 1 
Mo.Si.Ke.xing.dong.2023.DUB.WEB-DLRip.x264.seleZen.mkv1.85 GB

Похожие раздачи по запросу - Миссия
2024-04-15 magnet Выживалити. Миссия Альфа [01-07] (2024) WEBRip 1080p от Files-x 30.08 GB ↑ 0 ↓ 0
2024-04-10 magnet Василий Головачев - Месть солнцу 2. Миссия невыполнима (2024) MP3 446.28 MB ↑ 0 ↓ 0
2024-03-24 magnet Выживалити. Миссия Альфа [01-04] (2024) WEBRip от Files-x 6.66 GB ↑ 0 ↓ 1
2024-03-21 magnet Миссия в Москве / Mo Si Ke xing dong / 93 guo ji lie che da jie an: Mosike xing dong (2023) WEB-DLRip от toxics & селезень | D | Локализованная версия 1.46 GB ↑ 0 ↓ 0
2024-03-20 magnet Миссия в Москве / Mo Si Ke xing dong / 93 guo ji lie che da jie an: Mosike xing dong (2023) WEB-DLRip от MegaPeer | D | Локализованная версия 1.46 GB ↑ 0 ↓ 0
2024-03-19 magnet Миссия в Москве / 93 guo ji lie che da jie an: Mosike xing dong (2023) WEB-DL 1080p | D 4.34 GB ↑ 2 ↓ 0
2024-03-18 magnet Выживалити. Миссия Альфа [01-03] (2024) WEBRip 720p от Files-x 9.24 GB ↑ 0 ↓ 1

Комментарии


Зарегистрируйтесь чтобы добавить комментарий
Торрент клиент
byTorrent - программа для загрузки торрент-файлов.

Скачать byTorrent.exe (1,5 МБ)

Скачать byTorrent.zip (0,6 МБ)

Поддержи torrent.by
российских рублей
(300 российских рублей это 4$)

Обратная связь rss

End game ©