↑↓torrent.by
Поиск
Логин:  Регистрация
Пароль:

Мадам Паутина / Мадам Павутина / Madame Web (2024) WEB-DL-HEVC 2160p | 4K | HDR | Dolby Vision Profile 8 | D | Line | UKR

download Скачать торрент-файл   magnet Магнитная ссылка Размер: 20.16 GB Добавлен: 2024-03-20 11:00
Пиры будут получены из сети DHT
Последний сидер был замечен 2024-03-24 13:59
Информация о фильме Название: Мадам Паутина Оригинальное название: Madame Web Год выхода: 2024 Жанр: фантастика, боевик, приключения Режиссер: С.Дж. Кларксон В ролях: Дакота Джонсон, Сидни Суини, Изабела Мерсед, Селеста О’Коннор, Тахар Рахим, Майк Эппс, Эмма Робертс, Адам Скотт, Керри Бише, Заша Мэмет О фильме: Медсестра из Манхэттена Кассандра Уэбб открывает в себе способность видеть будущее и понимает, что может использовать эту силу, чтобы его изменить. Столкнувшись с тайнами своего прошлого, Кассандра знакомится с тремя девушками, которым суждено однажды стать великими, если они вместе смогут пережить смертельно опасное настоящее. Страна: США, Канада, Мексика Студия: Columbia Pictures Corporation, Di Bonaventura Pictures, Marvel Entertainment Продолжительность: 01:56:11 Перевод: Дублированный | Line (Украинский) Файл Кодек: H.265 Качество: WEB-DL 2160p Видео: HEVC, HDR10, Dolby Vision Profile 8, 3840x1606 (2.40:1), 23.976 fps, 23.9 Mb/s, 10 bit Аудио 1: AC3, 48.0 kHz, 2 ch, 192 kb/s | UKR Аудио 2: E-AC3 JOC, 48.0 kHz, 6 ch, 768 kb/s | ENG Субтитры: украинские (forced, full), английские (full, SDH) Трейлер
[+] MIGeneral Unique ID : 65720641765501511004650474617258457429 (0x317155CF4705A2522CAD15C56D093955) Complete name : Madame Web (2024) WEB-DL 2160p HDR DV Ukr(Line)_Eng .mkv Format : Matroska Format version : Version 4 File size : 20.2 GiB Duration : 1 h 56 min Overall bit rate : 24.8 Mb/s Movie name : Madame Web (2024) Encoded date : UTC 2024-03-19 09:18:23 Writing application : mkvmerge v83.0 ('Circle Of Friends') 64-bit Writing library : libebml v1.4.5 + libmatroska v1.7.1 Cover : Yes Attachments : Cover.jpg Video ID : 1 Format : HEVC Format/Info : High Efficiency Video Coding Format profile : Main 10@L5@High HDR format : Dolby Vision, Version 1.0, dvhe.08.06, BL+RPU, HDR10 compatible / SMPTE ST 2086, HDR10 compatible Codec ID : V_MPEGH/ISO/HEVC Duration : 1 h 56 min Bit rate : 23.9 Mb/s Width : 3 840 pixels Height : 1 606 pixels Display aspect ratio : 2.40:1 Frame rate mode : Constant Frame rate : 23.976 (24000/1001) FPS Original frame rate : 23.976 (23976/1000) FPS Color space : YUV Chroma subsampling : 4:2:0 (Type 2) Bit depth : 10 bits Bits/(Pixel*Frame) : 0.162 Stream size : 19.4 GiB (96%) Default : Yes Forced : No Color range : Limited Color primaries : BT.2020 Transfer characteristics : PQ Matrix coefficients : BT.2020 non-constant Mastering display color primaries : BT.2020 Mastering display luminance : min: 0.0050 cd/m2, max: 1000 cd/m2 Maximum Content Light Level : 1809 cd/m2 Maximum Frame-Average Light Level : 760 cd/m2 Audio #1 ID : 2 Format : AC-3 Format/Info : Audio Coding 3 Commercial name : Dolby Digital Codec ID : A_AC3 Duration : 1 h 56 min Bit rate mode : Constant Bit rate : 192 kb/s Channel(s) : 2 channels Channel layout : L R Sampling rate : 48.0 kHz Frame rate : 31.250 FPS (1536 SPF) Compression mode : Lossy Stream size : 160 MiB (1%) Title : DUB (Line) Language : Ukrainian Service kind : Complete Main Default : Yes Forced : No Audio #2 ID : 3 Format : E-AC-3 JOC Format/Info : Enhanced AC-3 with Joint Object Coding Commercial name : Dolby Digital Plus with Dolby Atmos Codec ID : A_EAC3 Duration : 1 h 56 min Bit rate mode : Constant Bit rate : 768 kb/s Channel(s) : 6 channels Channel layout : L R C LFE Ls Rs Sampling rate : 48.0 kHz Frame rate : 31.250 FPS (1536 SPF) Compression mode : Lossy Stream size : 638 MiB (3%) Title : Original Language : English Service kind : Complete Main Default : No Forced : No Complexity index : 16 Number of dynamic objects : 15 Bed channel count : 1 channel Bed channel configuration : LFE Text #1 ID : 4 Format : UTF-8 Codec ID : S_TEXT/UTF8 Codec ID/Info : UTF-8 Plain Text Duration : 1 h 13 min Bit rate : 0 b/s Count of elements : 7 Stream size : 342 Bytes (0%) Title : Forced Language : Ukrainian Default : Yes Forced : No Text #2 ID : 5 Format : UTF-8 Codec ID : S_TEXT/UTF8 Codec ID/Info : UTF-8 Plain Text Duration : 1 h 54 min Bit rate : 94 b/s Count of elements : 1623 Stream size : 79.7 KiB (0%) Title : Full Language : Ukrainian Default : No Forced : No Text #3 ID : 6 Format : UTF-8 Codec ID : S_TEXT/UTF8 Codec ID/Info : UTF-8 Plain Text Duration : 1 h 47 min Bit rate : 59 b/s Count of elements : 1609 Stream size : 46.4 KiB (0%) Title : Full Language : English Default : No Forced : No Text #4 ID : 7 Format : UTF-8 Codec ID : S_TEXT/UTF8 Codec ID/Info : UTF-8 Plain Text Duration : 1 h 55 min Bit rate : 70 b/s Count of elements : 2175 Stream size : 59.4 KiB (0%) Title : SDH Language : English Default : No Forced : No Menu 00:00:00.000 : en:Chapter 01 00:07:55.684 : en:Chapter 02 00:15:51.659 : en:Chapter 03 00:22:54.249 : en:Chapter 04 00:27:42.620 : en:Chapter 05 00:36:52.962 : en:Chapter 06 00:44:36.176 : en:Chapter 07 00:52:22.475 : en:Chapter 08 01:00:17.575 : en:Chapter 09 01:07:17.370 : en:Chapter 10 01:17:02.747 : en:Chapter 11 01:20:05.513 : en:Chapter 12 01:28:01.740 : en:Chapter 13 01:35:39.114 : en:Chapter 14 01:46:37.605 : en:Chapter 15 01:48:51.072 : en:Chapter 16
[+] Скриншоты

Всего файлов в раздаче: 1 
Madame Web (2024) WEB-DL 2160p HDR DV Ukr(Line)_Eng [Hurtom].mkv20.16 GB

Похожие раздачи по запросу - Мадам
2024-04-08 magnet Мадам Паутина / Мадам Павутина / Madame Web (2024) WEB-DL 1080p | D | UKR 7.92 GB ↑ 1 ↓ 1
2024-04-04 magnet Мадам Паутина / Madame Web (2024) WEB-DL-HEVC 2160p | 4K | SDR | D, P, P2 13.08 GB ↑ 0 ↓ 2
2024-04-03 magnet Мадам Паутина / Madame Web (2024) WEB-DLRip от toxics & селезень | D 1.46 GB ↑ 0 ↓ 0
2024-04-02 magnet Мадам Паутина / Madame Web (2024) WEB-DL 1080p от EniaHD | D, P, P2 9.79 GB ↑ 0 ↓ 1
2024-04-02 magnet Мадам Паутина / Madame Web (2024) UHD WEB-DL 2160p от селезень | 4K | HDR | Dolby Vision Profile 8 | D, P, P2 21.52 GB ↑ 0 ↓ 1
2024-04-02 magnet Мадам Паутина / Madame Web (2024) WEB-DL 1080p | D 7.66 GB ↑ 0 ↓ 0
2024-04-02 magnet Мадам Паутина / Madame Web (2024) WEB-DLRip 1080p от селезень | D, P, P2 7.57 GB ↑ 0 ↓ 2

Комментарии


Зарегистрируйтесь чтобы добавить комментарий
Торрент клиент
byTorrent - программа для загрузки торрент-файлов.

Скачать byTorrent.exe (1,5 МБ)

Скачать byTorrent.zip (0,6 МБ)

Поддержи torrent.by
российских рублей
(300 российских рублей это 4$)

Обратная связь rss

End game ©