↑↓torrent.by
Поиск
Логин:  Регистрация
Пароль:

Парк Юрского периода 3 / Jurassic Park III (2001) BDRip 720p от New-Team | D, P

download Скачать торрент-файл   magnet Магнитная ссылка Размер: 2.91 GB Добавлен: 2024-03-20 11:00
Пиры будут получены из сети DHT
Последний сидер был замечен 2024-03-20 14:19
Страна: США Производство: Amblin Entertainment, Universal Pictures Жанр: фантастика, боевик, приключения Год выпуска: 2001 Продолжительность: 01:32:12 Перевод: Профессиональный (полное дублирование) Киномания, Профессиональный (многоголосый закадровый) Blu-ray CEE Оригинальная аудиодорожка: английский Cубтитры: русский Режиссер: Джо Джонстон / Joe Johnston В ролях: Сэм Нил, Уильям Х. Мэйси, Теа Леони, Алессандро Нивола, Тревор Морган, Майкл Джитер, Джон Дил, Брюс А. Янг, Лора Дерн, Тейлор Николс... Подробнее об актерах Роли дублировали: Дальвин Щербаков, Владимир Зайцев, Ольга Кузнецова, Денис Беспалый, Степан Балабанов... Описание: Герой Сэма Нила, палеонтолог Алан Грант, принимает предложение состоятельного предпринимателя совершить обзорную экскурсию над печально знаменитым островом Сорна на специально нанятом самолете. Мог ли доктор Грант предполагать, что страшная, непредвиденная катастрофа снова заставит его столкнуться со свирепыми плотоядными существами из прошлого?! Практически сразу после посадки группу атакует спинозавр, и Грант и его компания остаются без возможности покинуть остров. Исходник: BDRemux 1080p Тип релиза: BDRip 720p Контейнер: MKV Видео: 1280x690 (1,85:1), 23,976 кадров/сек, x264 core 164 r3182 ~ 3170 кбит/сек, 0.150 бит/пиксель Аудио: 48 кГц, Dolby Digital AC3 5.1, 448 кбит/сек DUB Киномания Аудио: 48 кГц, Dolby Digital AC3 5.1, 448 кбит/сек MVO Blu-ray CEE Аудио: 48 кГц, Dolby Digital AC3 5.1, 448 кбит/сек Английский Субтитры: SoftSub (srt) Оригинальная навигация по главам: есть Раздача от:
[+] MediaInfo Общее Полное имя : Парк Юрского периода 3.2001.BDRip720p__by_AVP_Studio.mkv Формат : Matroska Версия формата : Version 4 Размер файла : 2,91 Гбайт Продолжительность : 1 ч. 32 м. Общий поток : 4 510 Кбит/сек Частота кадров : 23,976 кадра/сек Дата кодирования : 2024-03-19 14:59:42 UTC Программа кодирования : mkvmerge v83.0 ('Circle Of Friends') 64-bit Библиотека кодирования : libebml v1.4.5 + libmatroska v1.7.1 Видео Идентификатор : 1 Формат : AVC Формат/Информация : Advanced Video Codec Профиль формата : High@L4.1 Настройки формата : CABAC / 8 Ref Frames Параметр CABAC формата : Да Параметр RefFrames формата : 8 кадров Идентификатор кодека : V_MPEG4/ISO/AVC Продолжительность : 1 ч. 32 м. Битрейт : 3 170 Кбит/сек Ширина : 1 280 пикселей Высота : 690 пикселей Соотношение сторон : 1,85:1 Режим частоты кадров : Постоянный Частота кадров : 23,976 (24000/1001) кадра/сек Цветовое пространство : YUV Субдискретизация насыщенности : 4:2:0 Битовая глубина : 8 бит Тип развёртки : Прогрессивная Бит/(Пиксели*Кадры) : 0.150 Размер потока : 2,04 Гбайт (70%) Заголовок : Исходник BDRemux Библиотека кодирования : x264 core 164 r3182 be4f020 Настройки программы : cabac=1 / ref=8 / deblock=1:-3:-3 / analyse=0x3:0x133 / me=umh / subme=10 / psy=1 / psy_rd=1.00:0.00 / mixed_ref=1 / me_range=32 / chroma_me=1 / trellis=2 / 8x8dct=1 / cqm=0 / deadzone=21,11 / fast_pskip=1 / chroma_qp_offset=-2 / threads=6 / lookahead_threads=1 / sliced_threads=0 / nr=0 / decimate=0 / interlaced=0 / bluray_compat=0 / constrained_intra=0 / bframes=8 / b_pyramid=2 / b_adapt=2 / b_bias=0 / direct=3 / weightb=1 / open_gop=0 / weightp=2 / keyint=240 / keyint_min=24 / scenecut=40 / intra_refresh=0 / rc=2pass / mbtree=0 / bitrate=3170 / ratetol=1.0 / qcomp=0.60 / qpmin=0 / qpmax=69 / qpstep=4 / cplxblur=20.0 / qblur=0.5 / ip_ratio=1.40 / pb_ratio=1.30 / aq=1:1.00 Язык : English Default : Да Forced : Нет Аудио #1 Идентификатор : 2 Формат : AC-3 Формат/Информация : Audio Coding 3 Коммерческое название : Dolby Digital Идентификатор кодека : A_AC3 Продолжительность : 1 ч. 32 м. Вид битрейта : Постоянный Битрейт : 448 Кбит/сек Каналы : 6 каналов Channel layout : L R C LFE Ls Rs Частота : 48,0 КГц Частота кадров : 31,250 кадров/сек (1536 SPF) Метод сжатия : С потерями Размер потока : 296 Мбайт (10%) Заголовок : Профессиональный (дублированный) Киномания Язык : Russian Default : Да Forced : Нет Аудио #2 Идентификатор : 3 Формат : AC-3 Формат/Информация : Audio Coding 3 Коммерческое название : Dolby Digital Идентификатор кодека : A_AC3 Продолжительность : 1 ч. 32 м. Вид битрейта : Постоянный Битрейт : 448 Кбит/сек Каналы : 6 каналов Channel layout : L R C LFE Ls Rs Частота : 48,0 КГц Частота кадров : 31,250 кадров/сек (1536 SPF) Метод сжатия : С потерями Размер потока : 296 Мбайт (10%) Заголовок : Профессиональный (многоголосый закадровый) Blu-ray CEE Язык : Russian Default : Да Forced : Нет Аудио #3 Идентификатор : 4 Формат : AC-3 Формат/Информация : Audio Coding 3 Коммерческое название : Dolby Digital Идентификатор кодека : A_AC3 Продолжительность : 1 ч. 32 м. Вид битрейта : Постоянный Битрейт : 448 Кбит/сек Каналы : 6 каналов Channel layout : L R C LFE Ls Rs Частота : 48,0 КГц Частота кадров : 31,250 кадров/сек (1536 SPF) Метод сжатия : С потерями Размер потока : 295 Мбайт (10%) Заголовок : Оригинал Язык : English Default : Да Forced : Нет Текст #1 Идентификатор : 5 Формат : UTF-8 Идентификатор кодека : S_TEXT/UTF8 Идентификатор кодека/Информация : UTF-8 Plain Text Продолжительность : 41 м. 21 с. Битрейт : 0 бит/сек Частота кадров : 0,002 кадр/сек Count of elements : 5 Размер потока : 234 байт (0%) Заголовок : Forced SRT Язык : Russian Default : Нет Forced : Да Текст #2 Идентификатор : 6 Формат : UTF-8 Идентификатор кодека : S_TEXT/UTF8 Идентификатор кодека/Информация : UTF-8 Plain Text Продолжительность : 1 ч. 22 м. Битрейт : 66 бит/сек Частота кадров : 0,148 кадр/сек Count of elements : 733 Размер потока : 40,4 Кбайт (0%) Заголовок : SRT Язык : Russian Default : Нет Forced : Нет Меню 00:00:00.000 : (01)00:00:00:000 00:04:11.793 : (02)00:04:11:793 00:12:43.721 : (03)00:12:43:721 00:17:26.795 : (04)00:17:26:795 00:19:56.737 : (05)00:19:56:737 00:26:27.294 : (06)00:26:27:294 00:27:35.695 : (07)00:27:35:695 00:32:37.830 : (08)00:32:37:830 00:36:13.045 : (09)00:36:13:045 00:40:11.992 : (10)00:40:11:992 00:44:32.211 : (11)00:44:32:211 00:53:06.516 : (12)00:53:06:516 00:56:48.613 : (13)00:56:48:613 00:58:55.573 : (14)00:58:55:573 01:03:00.693 : (15)01:03:00:693 01:11:44.758 : (16)01:11:44:758 01:14:53.322 : (17)01:14:53:322 01:18:44.219 : (18)01:18:44:219 01:21:29.801 : (19)01:21:29:801 01:24:28.229 : (20)01:24:28:229 01:32:12.485 : (21)01:32:12:485
[+] Скриншоты

Всего файлов в раздаче: 1 
Парк Юрского периода 3.2001.BDRip720p_[New-team]_by_AVP_Studio.mkv2.91 GB

Похожие раздачи по запросу - Парк
2024-03-20 magnet Парк Юрского периода 3 / Jurassic Park III (2001) BDRip-AVC от New-Team | D 2.18 GB ↑ 0 ↓ 0
2024-03-20 magnet Парк Юрского периода 3 / Jurassic Park III (2001) BDRip от New-Team | D 744.64 MB ↑ 0 ↓ 0
2024-03-17 magnet Парк Юрского периода / Jurassic Park (Стивен Спилберг (1993) BDRip-AVC от New-Team | D 2.91 GB ↑ 0 ↓ 0
2024-03-16 magnet Парк Юрского периода / Jurassic Park (Стивен Спилберг (1993) BDRip от New-Team | D 1.09 GB ↑ 0 ↓ 0

Комментарии


Зарегистрируйтесь чтобы добавить комментарий
Торрент клиент
byTorrent - программа для загрузки торрент-файлов.

Скачать byTorrent.exe (1,5 МБ)

Скачать byTorrent.zip (0,6 МБ)

Поддержи torrent.by
российских рублей
(300 российских рублей это 4$)

Обратная связь rss

End game ©