↑↓torrent.by
Поиск
Логин:  Регистрация
Пароль:

Мы или нас / Us or Them (2023) BDRemux 1080p | D

download Скачать торрент-файл   magnet Магнитная ссылка Размер: 14.40 GB Добавлен: 2024-03-20 11:00
Пиры будут получены из сети DHT
Последний сидер был замечен 2024-03-25 23:24
Информация о фильме Название: Мы или нас Оригинальное название: Us or Them Год выхода: 2023 Жанр: Боевик, триллер Режиссер: Том Пэйтон В ролях: Малин Акерман, Селин Абрахамс, Николь Бартлетт, Сэм Кэссиди, Уинстон Крук, Грант Крукс, Джек Доннелли, Уэйн Энтони Гордон, Тоби Осмонд, Хоакин Мигель Пуят, Семен Уиллис О фильме: Многие осуждали увлечение Джуда, часами пропадавшего в онлайн-игре. Однако его талант и упорство позволи получить главный приз — роскошный отпуск для него и пятерых человек, которых он возьмет с собой. Джуд приглашает свою девушку, лучшего друга Энди с женой и родственников. Отдых проходит в отдельной шикарной вилле на берегу океана с полным пансионом и различными развлечениями. Но однажды утром в поместье появляется женщина, которая приглашает Джуда и Энди поучаствовать в состязании с призом в 20 миллионов долларов. Воодушевленные друзья соглашаются на новое приключение, но слишком поздно понимают, что ставки в этой игре чрезвычайно высоки: сначала это деньги, потом их части тела, а вскоре на кону оказываются жизни их близких. Страна: Великобритания Студия: Highfield Grange Studios, MSR Media, Sherborne Media Продолжительность: 01:25:49 Перевод: Дублированный | СиПиАй Филмз / CPI Films Файл Формат: MKV Качество: BDRemux 1080p Видео: MPEG-4 AVC, 1920x1080 (16:9), 21.8 Mbps, 24.000 fps Аудио 1: Russian: E-AC3 Dolby Digital, 48.0 kHz, 5.1 ch, 384 kbps Аудио 2: English: DTS-HD MA Audio, 48.0 kHz, 5.1 ch, 1866 kbps Субтитры: Английские (Full)
[+] Скриншоты
[+] Инфо-файлGeneral Unique ID : 177886180219788669076643273929125685308 (0x85D3A1D278CB1101F64C90967C9E683C) Complete name : Us.Or.Them.2023.BDRemux.1080p.pk.mkv Format : Matroska Format version : Version 4 File size : 14.4 GiB Duration : 1 h 25 min Overall bit rate mode : Variable Overall bit rate : 24.0 Mb/s Frame rate : 24.000 FPS Movie name : Us or Them 2023 BDRemux 1080p pk Encoded date : 2024-03-19 14:10:21 UTC Writing application : mkvmerge v79.0 ('Funeral Pyres') 64-bit Writing library : libebml v1.4.4 + libmatroska v1.7.1 Video ID : 1 Format : AVC Format/Info : Advanced Video Codec Format profile : High@L4.1 Format settings : CABAC / 2 Ref Frames Format settings, CABAC : Yes Format settings, Reference frames : 2 frames Format settings, Slice count : 4 slices per frame Codec ID : V_MPEG4/ISO/AVC Duration : 1 h 25 min Bit rate mode : Variable Bit rate : 21.8 Mb/s Maximum bit rate : 30.2 Mb/s Width : 1 920 pixels Height : 1 080 pixels Display aspect ratio : 16:9 Frame rate mode : Constant Frame rate : 24.000 FPS Color space : YUV Chroma subsampling : 4:2:0 Bit depth : 8 bits Scan type : Progressive Bits/(Pixel*Frame) : 0.437 Stream size : 13.0 GiB (91%) Language : English Default : Yes Forced : No Audio #1 ID : 2 Format : E-AC-3 Format/Info : Enhanced AC-3 Commercial name : Dolby Digital Plus Codec ID : A_EAC3 Duration : 1 h 25 min Bit rate mode : Constant Bit rate : 384 kb/s Channel(s) : 6 channels Channel layout : L R C LFE Ls Rs Sampling rate : 48.0 kHz Frame rate : 31.250 FPS (1536 SPF) Compression mode : Lossy Stream size : 236 MiB (2%) Title : Russian Dub CPI Films Language : Russian Service kind : Complete Main Default : Yes Forced : No Audio #2 ID : 3 Format : DTS XLL Format/Info : Digital Theater Systems Commercial name : DTS-HD Master Audio Codec ID : A_DTS Duration : 1 h 25 min Bit rate mode : Variable Bit rate : 1 866 kb/s Channel(s) : 6 channels Channel layout : C L R Ls Rs LFE Sampling rate : 48.0 kHz Frame rate : 93.750 FPS (512 SPF) Bit depth : 16 bits Compression mode : Lossless Stream size : 1.12 GiB (8%) Title : English Original Language : English Default : No Forced : No Text ID : 4 Format : UTF-8 Codec ID : S_TEXT/UTF8 Codec ID/Info : UTF-8 Plain Text Duration : 1 h 19 min Bit rate : 67 b/s Frame rate : 0.277 FPS Count of elements : 1329 Stream size : 39.3 KiB (0%) Title : English full Language : English Default : No Forced : No Menu 00:00:00.000 : Chapter 01 00:06:56.333 : Chapter 02 00:14:07.250 : Chapter 03 00:23:33.708 : Chapter 04 00:32:04.750 : Chapter 05 00:36:37.958 : Chapter 06 00:43:37.375 : Chapter 07 00:50:25.125 : Chapter 08 01:01:06.542 : Chapter 09 01:07:16.458 : Chapter 10 01:13:05.250 : Chapter 11 01:21:51.833 : Chapter 12

Всего файлов в раздаче: 1 
Us.Or.Them.2023.BDRemux.1080p.pk.mkv14.40 GB

Похожие раздачи по запросу - или
2024-03-26 magnet Джон Толкин - Хоббит, или Туда и обратно (2024) МР3 479.64 MB ↑ 0 ↓ 0
2024-03-26 magnet Кормак Маккарти - Пограничная трилогия 3. Содом и Гоморра, или города окрестности сей (2024) MP3 1.01 GB ↑ 0 ↓ 0
2024-03-16 magnet Мы или нас / Us or Them (2023) BDRip 1080p от селезень | D 7.69 GB ↑ 0 ↓ 0
2024-03-16 magnet Мы или нас / Us or Them (2023) BDRip от MegaPeer | D 1.46 GB ↑ 0 ↓ 0
2024-03-16 magnet Мы или нас / Us or Them (2023) BDRip 1080p от ELEKTRI4KA | D 7.17 GB ↑ 0 ↓ 0
2024-01-19 magnet Мгновенная карма, или Как стать миллионером / Instant Karma (2021) WEB-DLRip от MegaPeer | D 1.37 GB ↑ 0 ↓ 0
2023-12-10 magnet Конь в пальто! Или недалекие родственники... (2023) WEB-DLRip 2К1.46 GB ↑ 0 ↓ 0

Комментарии


Зарегистрируйтесь чтобы добавить комментарий
Торрент клиент
byTorrent - программа для загрузки торрент-файлов.

Скачать byTorrent.exe (1,5 МБ)

Скачать byTorrent.zip (0,6 МБ)

Поддержи torrent.by
российских рублей
(300 российских рублей это 4$)

Обратная связь rss

End game ©