↑↓torrent.by
Поиск
Логин:  Регистрация
Пароль:

Захар Беркут / The Rising Hawk (2019) BDRip 1080p от ExKinoRay | HDRezka Studio | US version

download Скачать торрент-файл   magnet Магнитная ссылка Размер: 14.50 GB Добавлен: 2024-03-20 11:00
Пиры будут получены из сети DHT
Последний сидер был замечен 2024-03-21 22:20
Название: Захар Беркут Оригинальное название: Захар Беркут Год выхода: 2019 Жанр: боевик, драма, история Режиссер: Ахтем Сейтаблаев, Джон Винн В ролях: Элисон Дуди, Томми Флэнаган, Роберт Патрик, Поппи Дрейтон, Алекс МакНиколл, Роки Майерс, Oliver Trevena, Алина Коваленко, Олег Волощенко, Виктор Жданов Описание: 1241 год. Монгольская орда во главе с ханом Бурундой движется на запад, истребляя все на своём пути и захватывая пленных. Дойдя до высоких Карпатских гор, войско останавливается у подножия. Ночью несколько местных охотников, братья Беркуты, тайком пробираются в лагерь и освобождают пленных. Узнав об этом, Бурунда приходит в ярость и решает отомстить, уничтожив местные поселения. Для этого он находит предателя среди местных, который открывает ему тайный проход в горах. Однако у горских охотников под предводительством Захара Беркута есть свой план, как раз и навсегда остановить врага. Страна: Украина, США Продолжительность: 02:05:10 Перевод:Профессиональный многоголосый | HDRezka Studio Субтитры: Русские (форс.) ** отсутствует перевод на нескольких отрезках фильма (~ 15 мин.), переведено русскими форсированными субтитрами *** US version БЕЗ КАКОЙ-ЛИБО РЕКЛАМЫ! Формат: MKV Качество: BDRip 1080p Видео: MPEG-4 AVC, 1920x806 (2.40:1), 23.976 fps, 15.2 Mb/s, 0.411 bit/pixel Аудио 1: 48 kHz, AC3, 5.1, 384 Kbps | MVO | RUS | Аудио 2: 48 kHz, AC3, 5.1, 640 Kbps | Оригинал | ENG |
[+] ОтчетМедиаИнфоGeneral Unique ID : 170143095421146670246818026344746082163 (0x80005E4456245744BE901BF2FA585F73) Complete name : G:The.Rising.Hawk.2019.1080p.BluRay.ExKinoRay.mkv Format : Matroska Format version : Version 2 File size : 14.5 GiB Duration : 2 h 5 min Overall bit rate : 16.6 Mb/s Movie name : The Rising Hawk 2019 from ExKinoRay Encoded date : UTC 2020-11-26 07:16:21 Writing application : mkvmerge v5.6.0 ('Kenya Kane') built on May 27 2012 16:44:04 Writing library : libebml v1.2.3 + libmatroska v1.3.0 Video ID : 1 Format : AVC Format/Info : Advanced Video Codec Format profile : High@L4.1 Format settings, CABAC : Yes Format settings, ReFrames : 5 frames Codec ID : V_MPEG4/ISO/AVC Duration : 2 h 5 min Bit rate : 15.2 Mb/s Width : 1 920 pixels Height : 806 pixels Display aspect ratio : 2.40:1 Frame rate mode : Constant Frame rate : 23.976 (24000/1001) FPS Color space : YUV Chroma subsampling : 4:2:0 Bit depth : 8 bits Scan type : Progressive Bits/(Pixel*Frame) : 0.411 Stream size : 13.3 GiB (92%) Title : MT Writing library : x264 core 157 r2938 2b00a84 TnP@MTeam Mod Encoding settings : cabac=1 / ref=5 / deblock=1:-3:-3 / analyse=0x3:0x133 / me=umh / subme=10 / psy=1 / psy_rd=1.05:0.00 / mixed_ref=1 / me_range=32 / chroma_me=1 / trellis=2 / 8x8dct=1 / cqm=0 / deadzone=21,11 / fast_pskip=0 / chroma_qp_offset=-2 / threads=12 / lookahead_threads=2 / sliced_threads=0 / nr=0 / decimate=0 / interlaced=0 / bluray_compat=0 / constrained_intra=0 / bframes=8 / b_pyramid=2 / b_adapt=2 / b_bias=0 / direct=3 / weightb=1 / open_gop=0 / weightp=2 / keyint=250 / keyint_min=24 / scenecut=40 / intra_refresh=0 / rc_lookahead=250 / rc=crf / mbtree=0 / crf=16.8 / qcomp=0.60 / qpmin=0 / qpmax=69 / qpstep=4 / vbv_maxrate=62500 / vbv_bufsize=78125 / crf_max=0.0 / nal_hrd=none / filler=0 / ip_ratio=1.30 / pb_ratio=1.20 / aq=3:0.80 Language : English Default : Yes Forced : No Color range : Limited Color primaries : BT.709 Matrix coefficients : BT.709 Audio #1 ID : 2 Format : AC-3 Format/Info : Audio Coding 3 Mode extension : CM (complete main) Format settings, Endianness : Big Codec ID : A_AC3 Duration : 2 h 5 min Bit rate mode : Constant Bit rate : 384 kb/s Channel(s) : 6 channels Channel positions : Front: L C R, Side: L R, LFE Sampling rate : 48.0 kHz Frame rate : 31.250 FPS (1536 spf) Compression mode : Lossy Stream size : 344 MiB (2%) Title : MVO (HDRezka Studio) Language : Russian Default : Yes Forced : No Audio #2 ID : 3 Format : AC-3 Format/Info : Audio Coding 3 Mode extension : CM (complete main) Format settings, Endianness : Big Codec ID : A_AC3 Duration : 2 h 5 min Bit rate mode : Constant Bit rate : 640 kb/s Channel(s) : 6 channels Channel positions : Front: L C R, Side: L R, LFE Sampling rate : 48.0 kHz Frame rate : 31.250 FPS (1536 spf) Compression mode : Lossy Stream size : 573 MiB (4%) Language : English Default : No Forced : No Text #1 ID : 4 Format : UTF-8 Codec ID : S_TEXT/UTF8 Codec ID/Info : UTF-8 Plain Text Title : Forced Language : Russian Default : Yes Forced : No Text #2 ID : 5 Format : UTF-8 Codec ID : S_TEXT/UTF8 Codec ID/Info : UTF-8 Plain Text Title : SRT Language : English Default : No Forced : No Menu 00:00:00.000 : en:Chapter 01 00:09:18.433 : en:Chapter 02 00:18:52.381 : en:Chapter 03 00:30:20.193 : en:Chapter 04 00:43:19.889 : en:Chapter 05 00:51:22.955 : en:Chapter 06 01:01:44.993 : en:Chapter 07 01:09:38.966 : en:Chapter 08 01:21:16.914 : en:Chapter 09 01:32:18.950 : en:Chapter 10 01:43:20.569 : en:Chapter 11 01:59:37.545 : en:Chapter 12
Релиз от: Автор релиза:

Всего файлов в раздаче: 1 
The.Rising.Hawk.2019.1080p.BluRay.ExKinoRay.mkv14.50 GB

Похожие раздачи по запросу - Захар
2024-03-19 magnet Захар Беркут / The Rising Hawk (2019) BDRip-AVC | HDRezka Studio | US Version 2.90 GB ↑ 0 ↓ 0

Комментарии


Зарегистрируйтесь чтобы добавить комментарий
Торрент клиент
byTorrent - программа для загрузки торрент-файлов.

Скачать byTorrent.exe (1,5 МБ)

Скачать byTorrent.zip (0,6 МБ)

Поддержи torrent.by
российских рублей
(300 российских рублей это 4$)

Обратная связь rss

End game ©