↑↓torrent.by
Поиск
Логин:  Регистрация
Пароль:

Перекресток / Collision / Intersections (2013) HDRip-AVC от DoMiNo & селезень | D

download Скачать торрент-файл   magnet Магнитная ссылка Размер: 1.45 GB Добавлен: 2024-03-20 11:00
Пиры будут получены из сети DHT
Последний сидер был замечен 2024-03-24 16:51
Информация о фильме Название: Перекресток Оригинальное название: Collision / Intersections Год выхода: 2013 Жанр: триллер, мелодрама Режиссер: Дэвид Маркони В ролях: Фрэнк Грилло, Джейми Александер, Рошди Зем, Мари-Жозе Кроз, Мусса Мааскри, Чарли Бьюли, Аффиф Бен Бадра, Карлос Леаль, Габриэлла Райт, Абделила Надиф Описание: В центре сюжета молодая пара. Однако их брак не так уж безоблачен. У женщины есть любовник на стороне, и с его помощью она разрабатывает план убийства мужа. Но все идет наперекосяк, когда муж и его соперник оказываются вместе на марокканской пустынной дороге после автомобильной катастрофы. Страна: Франция Студия: Canal+ , EuropaCorp, Grive Productions Продолжительность: 01:41:25 Перевод: Дубляж | РЕН-ТВ со вставками Любительского одноголосого Субтитры: Английские (Full, SDH) Файл Формат: Matroska Качество: HDRip-AVC Видео: 1024x432 at 23.976 fps, x264@L4.1, ~1851 kbps Аудио: AC3, 2 ch, ~192 kbps - | Русский | Формат субтитров: softsub (SRT) ***Рип от: -=DoMiNo=-
[+] M/IGeneral Unique ID : 305176557634483991632753435655769892295 (0xE596DDF81FD4D295B4EA75054E8725C7) Complete name : I:Intersections.2013.DUB.x264.seleZen.mkv Format : Matroska Format version : Version 4 File size : 1.45 GiB Duration : 1 h 41 min Overall bit rate : 2 045 kb/s Frame rate : 24.000 FPS Movie name : Intersections.2013.DUB.x264.seleZen Encoded date : 2024-03-19 18:37:58 UTC Writing application : mkvmerge v83.0 ('Circle Of Friends') 64-bit Writing library : libebml v1.4.5 + libmatroska v1.7.1 Cover : Yes Attachments : cover.jpg / small_cover.jpg Video ID : 1 Format : AVC Format/Info : Advanced Video Codec Format profile : High@L4.1 Format settings : CABAC / 14 Ref Frames Format settings, CABAC : Yes Format settings, Reference : 14 frames Codec ID : V_MPEG4/ISO/AVC Duration : 1 h 41 min Bit rate : 1 851 kb/s Width : 1 024 pixels Height : 432 pixels Display aspect ratio : 2.40:1 Frame rate mode : Constant Frame rate : 24.000 FPS Color space : YUV Chroma subsampling : 4:2:0 Bit depth : 8 bits Scan type : Progressive Bits/(Pixel*Frame) : 0.174 Stream size : 1.31 GiB (91%) Title : -=DoMiNo=- Writing library : x264 core 164 r3186 -DoMiNo Encoding settings : cabac=1 / ref=14 / deblock=1:-3:-2 / analyse=0x3:0x133 / me=umh / subme=10 / psy=1 / psy_rd=1.05:0.05 / mixed_ref=1 / me_range=32 / chroma_me=1 / trellis=2 / 8x8dct=1 / cqm=0 / deadzone=21,11 / fast_pskip=0 / chroma_qp_offset=-3 / threads=13 / lookahead_threads=3 / sliced_threads=0 / nr=0 / decimate=0 / interlaced=0 / bluray_compat=0 / constrained_intra=0 / bframes=10 / b_pyramid=2 / b_adapt=2 / b_bias=0 / direct=3 / weightb=1 / open_gop=0 / weightp=2 / keyint=240 / keyint_min=24 / scenecut=40 / intra_refresh=0 / rc_lookahead=60 / rc=crf / mbtree=0 / crf=17.5 / qcomp=0.60 / qpmin=0 / qpmax=69 / qpstep=4 / vbv_maxrate=50000 / vbv_bufsize=62500 / crf_max=0.0 / nal_hrd=none / filler=0 / ip_ratio=1.40 / pb_ratio=1.30 / aq=3:0.90 Language : English Default : Yes Forced : No Color range : Limited Color primaries : BT.709 Transfer characteristics : BT.709 Matrix coefficients : BT.709 Audio ID : 2 Format : AC-3 Format/Info : Audio Coding 3 Commercial name : Dolby Digital Codec ID : A_AC3 Duration : 1 h 41 min Bit rate mode : Constant Bit rate : 192 kb/s Channel(s) : 2 channels Channel layout : L R Sampling rate : 44.1 kHz Frame rate : 28.711 FPS (1536 SPF) Compression mode : Lossy Stream size : 139 MiB (9%) Title : Dub Language : Russian Service kind : Complete Main Default : Yes Forced : No Text #1 ID : 3 Format : UTF-8 Codec ID : S_TEXT/UTF8 Codec ID/Info : UTF-8 Plain Text Duration : 1 h 35 min Bit rate : 50 b/s Frame rate : 0.211 FPS Count of elements : 1207 Stream size : 35.2 KiB (0%) Title : Full Language : English Default : No Forced : No Text #2 ID : 4 Format : UTF-8 Codec ID : S_TEXT/UTF8 Codec ID/Info : UTF-8 Plain Text Duration : 1 h 40 min Bit rate : 60 b/s Frame rate : 0.248 FPS Count of elements : 1501 Stream size : 44.8 KiB (0%) Title : SDH Language : English Default : No Forced : No Menu 00:00:00.000 : en:Chapter 01 00:05:50.000 : en:Chapter 02 00:11:40.000 : en:Chapter 03 00:17:30.000 : en:Chapter 04 00:23:20.000 : en:Chapter 05 00:29:10.000 : en:Chapter 06 00:35:00.000 : en:Chapter 07 00:40:50.000 : en:Chapter 08 00:46:40.000 : en:Chapter 09 00:52:30.000 : en:Chapter 10 00:58:20.000 : en:Chapter 11 01:04:10.000 : en:Chapter 12 01:10:00.000 : en:Chapter 13 01:15:50.000 : en:Chapter 14 01:21:40.000 : en:Chapter 15 01:27:30.000 : en:Chapter 16 01:33:20.000 : en:Chapter 17 01:39:10.000 : en:Chapter 18
Релиз: Присоединяйся к: Кликай на баннеры.

Всего файлов в раздаче: 1 
Intersections.2013.DUB.x264.seleZen.mkv1.45 GB

Похожие раздачи по запросу - Перекресток
2024-04-09 magnet Перекрёсток (1998) HDTVRip-AVC от New-Team 1.46 GB ↑ 1 ↓ 0
2024-04-09 magnet Перекрёсток (1998) DVDRip-AVC от New-Team 1.46 GB ↑ 0 ↓ 0
2024-04-08 magnet Юрий Москаленко - Перекрёсток судьбы. Пустышка [6 книг] (2023-2024) МР3 1.54 GB ↑ 0 ↓ 0
2024-04-08 magnet Перекрёсток (1998) HDTVRip 720p от New-Team 2.91 GB ↑ 0 ↓ 0
2024-03-16 magnet Перекресток / Collision / Intersections (2013) HDRip от ExKinoRay | D 743.33 MB ↑ 0 ↓ 0
2024-03-15 magnet Перекресток / Collision / Intersections (2013) BDRip 1080p | D 8.28 GB ↑ 0 ↓ 0

Комментарии


Зарегистрируйтесь чтобы добавить комментарий
Торрент клиент
byTorrent - программа для загрузки торрент-файлов.

Скачать byTorrent.exe (1,5 МБ)

Скачать byTorrent.zip (0,6 МБ)

Поддержи torrent.by
российских рублей
(300 российских рублей это 4$)

Обратная связь rss

End game ©