↑↓torrent.by
Поиск
Логин:  Регистрация
Пароль:

История Юань Тяньгана / The Story of Yuan Tiangang ( 2024) WEBRip 2160p | L2 | 4K | SDR

download Скачать торрент-файл   magnet Магнитная ссылка Размер: 4.28 GB Добавлен: 2024-03-20 11:00
Пиры будут получены из сети DHT
Последний сидер был замечен вчера в 21:15
Информация о фильме Название: История Юань Тяньгана Оригинальное название: The Story of Yuan Tiangang Год выхода: 2024 Жанр: Фэнтези, боевик, история Режиссер: Ша Фэн В ролях: Бу Лян Шуай, Мао Сяо Хуэй, Чэнь Цзи Мин, Ли Чун Фэн, Ли Ши Мин, Чжан Чэн Ян, Сюй Вай Ло, Шен Тай, Е Ци Шань, Эдвин Лу, Мин Чжэн О фильме: Юань Тяньган, обремененный судьбоносным прошлым, ищет убежища в долине Скрытых солдат после трагической гибели своей семьи. В юном возрасте ему поручили охранять Меч Дракона, но его жизнь принимает мрачный оборот, когда демоны Земли опустошают долину.После пробуждения среди могил Юань Тяньган принимает свою судьбу, осваивает гадание по звездам и превращается в убийцу, нацеливающегося на недостойных. В 35 лет он встречает Хуаньина, владельца гостиницы, вовлеченного в смертельные сделки. По иронии судьбы во время покушения Юань Тяньган воссоединяется со старым другом Ли Чуньфэном.Возрождение Драконьей бездны в цзянху вынуждает Юаня Тяньгана признать свою истинную сущность хранителя династии. Теперь, столкнувшись с выбором между защитой династии или возвращением в цзянху в качестве героя, его решение содержит ключ к его судьбе. Страна: Китай Режиссер: Ша Фэн В ролях: Бу Лян Шуай Продолжительность: 01:26:21 Перевод: любительский (двуголосый, закадровый) RealFake Файл Кодек: HEVC Качество: WEBRip (2160p) Видео: 7092 Кбит/с, 3840x1608, 24.000 Звук: AC3, 6 ch, 448 Кбит/с, 48000 Субтитры: Китайские (Вшитые, неотключаемые)
[+] Скриншоты
[+] MediaInfoFormat : Matroska Format version : Version 4 / Version 2 File size : 4.28 GiB Duration : 1h 26mn Overall bit rate : 7 092 Kbps Encoded date : UTC 2024-02-18 10:48:57 Writing application : mkvmerge v27.0.0 ('Metropolis') 64-bit Writing library : libebml v1.3.6 + libmatroska v1.4.9 DURATION : 01:26:22.528000000 NUMBER_OF_FRAMES : 161954 NUMBER_OF_BYTES : 290221568 _STATISTICS_WRITING_APP : mkvmerge v27.0.0 ('Metropolis') 64-bit _STATISTICS_WRITING_DATE_UTC : 2024-02-18 10:48:57 _STATISTICS_TAGS : BPS DURATION NUMBER_OF_FRAMES NUMBER_OF_BYTES Video ID : 1 Format : V_MPEGH/ISO/HEVC Codec ID : V_MPEGH/ISO/HEVC Duration : 1h 26mn Bit rate : 6 503 Kbps Width : 3 840 pixels Height : 1 608 pixels Display aspect ratio : 2.40:1 Frame rate mode : Constant Frame rate : 24.000 fps Bits/(Pixel*Frame) : 0.044 Stream size : 3.92 GiB (92%) Default : Yes Forced : No Audio ID : 2 Format : AC-3 Format/Info : Audio Coding 3 Mode extension : CM (complete main) Format settings, Endianness : Big Codec ID : A_AC3 Duration : 1h 26mn Bit rate mode : Constant Bit rate : 448 Kbps Channel(s) : 6 channels Channel positions : Front: L C R, Side: L R, LFE Sampling rate : 48.0 KHz Bit depth : 16 bits Compression mode : Lossy Stream size : 277 MiB (6%) Title : RealFake Language : Russian Default : Yes Forced : Yes
Релиз от: RealFake

Всего файлов в раздаче: 1 
[RealFake] The.Story.of.Yuan.Tiangang.2024.2160p.mkv4.28 GB

Похожие раздачи по запросу - История
2024-04-21 magnet Американская история ужасов / American Horror Story: Delicate [12x01-08 из 09] (2023) WEB-DL 1080p | P | Red Head Sound 16.90 GB ↑ 0 ↓ 0
2024-04-21 magnet Серия - «История войн и военного искусства» [16 книг] (2014-2023) FB2 161.08 MB ↑ 0 ↓ 0
2024-04-20 magnet Вячеслав Васильев - История одежды. От звериных шкур до стиля унисекс (2022) FB2 3.27 MB ↑ 0 ↓ 0
2024-04-20 magnet Анна Таут - История сумок. От сумы до чемодана (2023) FB2 6.26 MB ↑ 0 ↓ 0
2024-04-20 magnet Майя Моисеева - История танца. От хоровода до тарантеллы (2023) FB2 3.24 MB ↑ 0 ↓ 0
2024-04-18 magnet Поскетт Джеймс - Незападная история науки: Открытия, о которых мы не знали (2024) МР3 383.42 MB ↑ 0 ↓ 0
2024-04-17 magnet Паук внутри: История Паутины Вселенных / The Spider Within: A Spider-Verse Story (2024) UHD WEB-RIP 2160p | D | Flarrow Films 347.58 MB ↑ 0 ↓ 0

Комментарии


Зарегистрируйтесь чтобы добавить комментарий
Торрент клиент
byTorrent - программа для загрузки торрент-файлов.

Скачать byTorrent.exe (1,5 МБ)

Скачать byTorrent.zip (0,6 МБ)

Поддержи torrent.by
российских рублей
(300 российских рублей это 4$)

Обратная связь rss

End game ©