↑↓torrent.by
Поиск
Логин:  Регистрация
Пароль:

Пчеловод / Бджоляр / The Beekeeper (2024) BDRip 720p | D | UKR

download Скачать торрент-файл   magnet Магнитная ссылка Размер: 5.03 GB Раздают: 0 Качают: 2 Добавлен: 2024-03-20 17:00
Пиры будут получены из сети DHT
Последний сидер был замечен 2024-03-20 17:00
Информация о фильме Название: Пчеловод Оригинальное название: The Beekeeper Год выхода: 2024 Жанр: боевик, криминал Режиссер: Дэвид Эйр В ролях: Джейсон Стэйтем, Эмми Рейвер-Лэмпман, Бобби Надери, Джош Хатчерсон, Джереми Айронс, Дэвид Уиттс, Михаэль Эпп, Тейлор Джеймс, Филишия Рашад, Джемма Редгрейв О фильме: Адам Клэй живет в тихом пригороде, занимается разведением пчёл и не распространяется о своей прошлой жизни. Он дружит с пожилой соседкой миссис Паркер, у которой арендует сарай. Однажды миссис Паркер становится жертвой кибермошенников, которые похищают деньги со всех её счетов. Не в силах вынести такой удар, женщина сводит счёты с жизнью. Осознав, что закон в данной ситуации бессилен, Адам решает применить все свои боевые навыки, чтобы вычислить преступников и отомстить. Страна: США, Великобритания Студия: Cedar Park Entertainment, Miramax Films, Punch Palace Productions Продолжительность: 01:45:14 Перевод: Дублированный | ААА Sound (Украинский) Файл Кодек: x.264 Качество: BDRip 720p Видео: AVC, 1280x536 (2.40:1), 23.976 fps, 4 920 kb/s Аудио 1: E-AC3, 48.0 kHz, 6 ch, 640 kb/s | UKR Аудио 2: AC3, 48.0 kHz, 6 ch, 640 kb/s | UKR Аудио 3: AC3, 48.0 kHz, 6 ch, 640 kb/s | ENG Субтитры: английские (full, SDH)
[+] MIGeneral Unique ID : 294522896129528994758683342831129103719 (0xDD930BE72F5389A018E1B65C389A8D67) Complete name : The Beekeeper (2024) BDRip 720p Ukr_Eng.mkv Format : Matroska Format version : Version 4 File size : 5.03 GiB Duration : 1 h 45 min Overall bit rate : 6 843 kb/s Movie name : The Beekeeper (2024) Encoded date : UTC 2024-03-15 11:56:03 Writing application : mkvmerge v83.0 ('Circle Of Friends') 64-bit Writing library : libebml v1.4.5 + libmatroska v1.7.1 Cover : Yes Attachments : Cover.jpg Video ID : 1 Format : AVC Format/Info : Advanced Video Codec Format profile : High@L4.1 Format settings : CABAC / 12 Ref Frames Format settings, CABAC : Yes Format settings, Reference frames : 12 frames Codec ID : V_MPEG4/ISO/AVC Duration : 1 h 45 min Bit rate : 4 920 kb/s Width : 1 280 pixels Height : 536 pixels Display aspect ratio : 2.40:1 Frame rate mode : Constant Frame rate : 23.976 (24000/1001) FPS Color space : YUV Chroma subsampling : 4:2:0 Bit depth : 8 bits Scan type : Progressive Bits/(Pixel*Frame) : 0.299 Stream size : 3.62 GiB (72%) Writing library : x264 core 164 r3179 Encoding settings : cabac=1 / ref=12 / deblock=1:-2:-2 / analyse=0x3:0x133 / me=umh / subme=10 / psy=1 / fade_compensate=0.00 / psy_rd=1.05:0.03 / mixed_ref=1 / me_range=32 / chroma_me=1 / trellis=2 / 8x8dct=1 / cqm=0 / deadzone=21,11 / fast_pskip=0 / chroma_qp_offset=-3 / threads=17 / lookahead_threads=4 / sliced_threads=0 / nr=0 / decimate=0 / interlaced=0 / bluray_compat=0 / constrained_intra=0 / fgo=0 / bframes=10 / b_pyramid=2 / b_adapt=2 / b_bias=0 / direct=3 / weightb=1 / open_gop=0 / weightp=2 / keyint=250 / keyint_min=23 / scenecut=40 / intra_refresh=0 / rc_lookahead=60 / rc=crf / mbtree=0 / crf=16.8000 / qcomp=0.60 / qpmin=0:0:0 / qpmax=69:69:69 / qpstep=4 / vbv_maxrate=50000 / vbv_bufsize=62500 / crf_max=0.0 / nal_hrd=none / filler=0 / ip_ratio=1.40 / pb_ratio=1.30 / aq=3:0.90 / aq-sensitivity=10.00 / aq-factor=1.00:1.00:1.00:1.00 / aq2=0 / aq3=0 Default : Yes Forced : No Color range : Limited Color primaries : BT.709 Transfer characteristics : BT.709 Matrix coefficients : BT.709 Audio #1 ID : 2 Format : E-AC-3 Format/Info : Enhanced AC-3 Commercial name : Dolby Digital Plus Codec ID : A_EAC3 Duration : 1 h 45 min Bit rate mode : Constant Bit rate : 640 kb/s Channel(s) : 6 channels Channel layout : L R C LFE Ls Rs Sampling rate : 48.0 kHz Frame rate : 31.250 FPS (1536 SPF) Compression mode : Lossy Stream size : 482 MiB (9%) Title : DUB (ААА Sound) Language : Ukrainian Service kind : Complete Main Default : Yes Forced : No Audio #2 ID : 3 Format : AC-3 Format/Info : Audio Coding 3 Commercial name : Dolby Digital Codec ID : A_AC3 Duration : 1 h 45 min Bit rate mode : Constant Bit rate : 640 kb/s Channel(s) : 6 channels Channel layout : L R C LFE Ls Rs Sampling rate : 48.0 kHz Frame rate : 31.250 FPS (1536 SPF) Compression mode : Lossy Stream size : 482 MiB (9%) Title : DUB (ААА Sound) Language : Ukrainian Service kind : Complete Main Default : No Forced : No Audio #3 ID : 4 Format : AC-3 Format/Info : Audio Coding 3 Commercial name : Dolby Digital Format settings : Dolby Surround EX Codec ID : A_AC3 Duration : 1 h 45 min Bit rate mode : Constant Bit rate : 640 kb/s Channel(s) : 6 channels Channel layout : L R C LFE Ls Rs Sampling rate : 48.0 kHz Frame rate : 31.250 FPS (1536 SPF) Compression mode : Lossy Stream size : 482 MiB (9%) Title : Original Language : English Service kind : Complete Main Default : No Forced : No Text #1 ID : 5 Format : UTF-8 Codec ID : S_TEXT/UTF8 Codec ID/Info : UTF-8 Plain Text Duration : 1 h 36 min Bit rate : 63 b/s Count of elements : 1504 Stream size : 44.5 KiB (0%) Title : Full Language : English Default : No Forced : No Text #2 ID : 6 Format : UTF-8 Codec ID : S_TEXT/UTF8 Codec ID/Info : UTF-8 Plain Text Duration : 1 h 39 min Bit rate : 73 b/s Count of elements : 1830 Stream size : 53.3 KiB (0%) Title : SDH Language : English Default : No Forced : No Menu 00:00:00.000 : en:Chapter 1 00:14:25.907 : en:Chapter 2 00:29:43.407 : en:Chapter 3 00:45:56.587 : en:Chapter 4 00:59:35.322 : en:Chapter 5 01:14:40.351 : en:Chapter 6 01:27:46.428 : en:Chapter 7 01:40:14.091 : en:Chapter 8
[+] Скриншоты

Всего файлов в раздаче: 1 
The Beekeeper (2024) BDRip 720p Ukr_Eng.mkv5.03 GB

Похожие раздачи по запросу - Пчеловод
Вчера magnet Пчеловод / The Beekeeper (2024) BDRip от DoMiNo & селезень | P | Jaskier 1.46 GB ↑ 0 ↓ 1
Вчера magnet Пчеловод / The Beekeeper (2024) BDRip от DoMiNo & селезень | P | TVShows 1.46 GB ↑ 0 ↓ 6
2024-04-12 magnet Пчеловод / Бджоляр / The Beekeeper (2024) UHD BDRemux 2160p | 4K | HDR | Dolby Vision | D | UKR 62.31 GB ↑ 1 ↓ 2
2024-03-18 magnet Пчеловод / Бджоляр / The Beekeeper (2024) BDRip 1080p | D | UKR 8.75 GB ↑ 0 ↓ 4
2024-03-17 magnet Пчеловод / Бджоляр / The Beekeeper (2024) BDRip-AVC | D | UKR 2.05 GB ↑ 0 ↓ 0
2024-03-17 magnet Пчеловод / Бджоляр / The Beekeeper (2024) BDRemux 1080p | D | UKR 1К23.67 GB ↑ 0 ↓ 0
2024-03-16 magnet Пчеловод / The Beekeeper (2024) BDRemux 1080p | P, P2, L1 | TVShows, Jaskier, ViruseProject 1К21.75 GB ↑ 0 ↓ 1

Комментарии


Зарегистрируйтесь чтобы добавить комментарий
Торрент клиент
byTorrent - программа для загрузки торрент-файлов.

Скачать byTorrent.exe (1,5 МБ)

Скачать byTorrent.zip (0,6 МБ)

Поддержи torrent.by
российских рублей
(300 российских рублей это 4$)

Обратная связь rss

End game ©