↑↓torrent.by
Поиск
Логин:  Регистрация
Пароль:

Пингвины-шпионы / Spy Penguin [S01] (2013-2014) WEB-DL 1080p

download Скачать торрент-файл   magnet Магнитная ссылка Размер: 3.29 GB Добавлен: 2024-03-20 17:00
Пиры будут получены из сети DHT
Последний сидер был замечен 2024-03-24 21:21
Название: Пингвины-шпионы Оригинальное название: Spy Penguin Страна: Гонконг Год выпуска: 2013-2014 Жанр: мультфильм, детский, приключения Режиссер: Оджи Хирои / Ohji Hiroi В ролях: Хисаси Игава, Эйдзи Такэмото, Икуэ Отани Описание: Веселые приключения Рок, Тексча и Роборобо, которые собираются вместе, чтобы противостоять злому преступнику. В составе особой организации они ловко применяют инновационное оружие, лихо водят крутые машины и изобретательно выполняют задания, каждый раз одерживая победу. Продолжительность: 26 x 00:05:00 Перевод: Не требуется Качество: WEB-DL 1080p | KP Формат: MKV Видео: AVC, 1920x1080, 25 fps, ~ 3882 kbps Аудио: AAC, 48 KHz, 2 ch, 192 kbps Субтитры: отсутствуют
[+] Подробные технические данныеGeneral Unique ID : 81736571020288912352305082700154670547 (0x3D7DE41679C2A1FC8A44716CB5560DD3) Complete name : E:Spy.Penguin.S01.1080pПингвины-шпионы - Сезон 1 - Серия 01.mkv Format : Matroska Format version : Version 4 File size : 157 MiB Duration : 5 min 23 s Overall bit rate : 4 076 kb/s Encoded date : UTC 2024-03-19 10:13:29 Writing application : mkvmerge v62.0.0 ('Apollo') 64-bit Writing library : libebml v1.4.2 + libmatroska v1.6.4 Video ID : 1 Format : AVC Format/Info : Advanced Video Codec Format profile : High@L4 Format settings : CABAC / 4 Ref Frames Format settings, CABAC : Yes Format settings, Reference frames : 4 frames Codec ID : V_MPEG4/ISO/AVC Duration : 5 min 23 s Bit rate : 3 882 kb/s Width : 1 920 pixels Height : 1 080 pixels Display aspect ratio : 16:9 Frame rate mode : Constant Frame rate : 25.000 FPS Color space : YUV Chroma subsampling : 4:2:0 Bit depth : 8 bits Scan type : Progressive Bits/(Pixel*Frame) : 0.075 Stream size : 150 MiB (95%) Writing library : x264 core 157 Encoding settings : cabac=1 / ref=4 / deblock=1:0:0 / analyse=0x3:0x133 / me=umh / subme=10 / psy=1 / psy_rd=1.00:0.00 / mixed_ref=1 / me_range=24 / chroma_me=1 / trellis=2 / 8x8dct=1 / cqm=0 / deadzone=21,11 / fast_pskip=1 / chroma_qp_offset=-2 / threads=34 / lookahead_threads=5 / sliced_threads=0 / nr=0 / decimate=1 / interlaced=0 / bluray_compat=0 / stitchable=1 / constrained_intra=0 / bframes=8 / b_pyramid=2 / b_adapt=2 / b_bias=0 / direct=3 / weightb=1 / open_gop=0 / weightp=2 / keyint=250 / keyint_min=25 / scenecut=40 / intra_refresh=0 / rc_lookahead=100 / rc=crf / mbtree=1 / crf=20.0 / qcomp=0.60 / qpmin=0 / qpmax=69 / qpstep=4 / ip_ratio=1.40 / aq=1:1.00 Default : Yes Forced : No Color range : Limited Color primaries : BT.709 Transfer characteristics : BT.709 Matrix coefficients : BT.709 Audio ID : 2 Format : AAC LC Format/Info : Advanced Audio Codec Low Complexity Codec ID : A_AAC-2 Duration : 5 min 23 s Bit rate : 192 kb/s Channel(s) : 2 channels Channel layout : L R Sampling rate : 48.0 kHz Frame rate : 46.875 FPS (1024 SPF) Compression mode : Lossy Stream size : 7.38 MiB (5%) Language : Russian Default : Yes Forced : No
[+] Скриншоты
Раздачу поддерживайте насколько возможно

Всего файлов в раздаче: 26 
Пингвины-шпионы - Сезон 1 - Серия 01.mkv157.02 MB
Пингвины-шпионы - Сезон 1 - Серия 02.mkv128.75 MB
Пингвины-шпионы - Сезон 1 - Серия 03.mkv119.57 MB
Пингвины-шпионы - Сезон 1 - Серия 04.mkv123.54 MB
Пингвины-шпионы - Сезон 1 - Серия 05.mkv146.51 MB
Пингвины-шпионы - Сезон 1 - Серия 06.mkv121.09 MB
Пингвины-шпионы - Сезон 1 - Серия 07.mkv140.90 MB
Пингвины-шпионы - Сезон 1 - Серия 08.mkv131.10 MB
Пингвины-шпионы - Сезон 1 - Серия 09.mkv126.64 MB
Пингвины-шпионы - Сезон 1 - Серия 10.mkv124.76 MB
Показать все файлы

Комментарии


Зарегистрируйтесь чтобы добавить комментарий
Торрент клиент
byTorrent - программа для загрузки торрент-файлов.

Скачать byTorrent.exe (1,5 МБ)

Скачать byTorrent.zip (0,6 МБ)

Поддержи torrent.by
российских рублей
(300 российских рублей это 4$)

Обратная связь rss

End game ©