↑↓torrent.by
Поиск
Логин:  Регистрация
Пароль:

Чёрный тюльпан / La tulipe noire (1964) BDRip-HEVC 1080p от RIPS CLUB | D, P | FRA Transfer

download Скачать торрент-файл   magnet Магнитная ссылка Размер: 8.93 GB Добавлен: 2024-03-20 17:00
Пиры будут получены из сети DHT
Последний сидер был замечен 2024-03-20 17:00
Название: Чёрный тюльпан Оригинальное название: La tulipe noire Год производства: 1964 Премьера в мире: 28 февраля 1964 Жанр: боевик, комедия, приключения Режиссер: Кристиан-Жак В ролях: Ален Делон, Вирна Лизи, Адольфо Марсильяч, Доун Аддамс, Аким Тамирофф, Лаура Валенсуэла, Жорж Риго, Франсис Бланш, Хосе Хаспе, Перла Кристаль О фильме: Накануне Французской революции в тихой провинции жуткий страх наводит на знатных мерзавцев таинственный разбойник в маске, чьим фирменным знаком стал чёрный тюльпан. Неуловимый мститель находчив, бесстрашен, благороден и умён, он прекрасный наездник и гений фехтования. Дворянин Жульен — беспечный неженка, глупый и трусливый — совсем на него не похож. Но никто не знает, что есть нечто, крепко связывающее этих двоих. Страна: Франция, Италия, Испания Студия: Ágata Films S.A., Flora Film S.r.l., Méditerranée Cinéma, Mizar Films Продолжительность: 01:53:14 Перевод: дублированный, профессиональный многоголосый Качество: BDRip-HEVC 1080p Кодек: HEVC (x265) Видео: 1920x856 (2.25:1), 10,0 Мбит/сек, HEVC (Main10@L.4.1@High) 10 бит Звук: Аудио1: AC3, 2 ch, 192 Kbps - Русский, Дублированный (Союзмультфильм + вставки MVO) Аудио2: AC3, 6 ch, 448 Kbps - Русский, Многоголосый (R5) Аудио3: AC3, 2 ch, 640 Kbps - French, Original Субтитры: English full (SRT), French full (SRT) Навигация по главам: Есть
[+] Лог (x265 info)x265 : frame I: 681, Avg QP:17.69 kb/s: 32452.08 x265 : frame P: 34918, Avg QP:19.37 kb/s: 22225.62 x265 : frame B: 127457, Avg QP:20.89 kb/s: 6544.06 x265 : Weighted P-Frames: Y:7.0% UV:5.7% x265 : Weighted B-Frames: Y:4.2% UV:3.3% x265 : consecutive B-frames: 1.0% 3.1% 4.6% 55.4% 9.3% 22.3% 1.6% 1.2% 0.5% 0.6% 0.2% 0.1% x265 : encoded 163056 frames in 125004.39s (1.30 fps), 10010.43 kb/s, Avg QP:20.55
[+] MediainfoОбщее Уникальный идентификатор : 153364394049716900201417941592922078108 (0x7360E86B7FECBCF9ACA693F062FF3B9C) Полное имя : .Чёрный.тюльпан.La.Tulipe.Noire.1963.FRA.Transfer.BDRip-HEVC.1080p.mkv Формат : Matroska Версия формата : Version 4 Размер файла : 8,93 Гбайт Продолжительность : 1 ч. 53 м. Общий поток : 11,3 Мбит/сек Название фильма : Чёрный.тюльпан.La.Tulipe.Noire.1963.FRA.Transfer.BDRip-HEVC.1080p Дата кодирования : UTC 2021-03-01 11:09:16 Программа кодирования : mkvmerge v53.0.0 ('Fool's Gold') 64-bit Библиотека кодирования : libebml v1.4.1 + libmatroska v1.6.2 Видео Идентификатор : 1 Формат : HEVC Формат/Информация : High Efficiency Video Coding Профиль формата : Main 10@L4.1@High Идентификатор кодека : V_MPEGH/ISO/HEVC Продолжительность : 1 ч. 53 м. Битрейт : 10,0 Мбит/сек Ширина : 1 920 пикселей Высота : 856 пикселей Соотношение сторон : 2,25:1 Режим частоты кадров : Постоянный Частота кадров : 24,000 кадра/сек Цветовое пространство : YUV Субдискретизация насыщенности : 4:2:0 Битовая глубина : 10 бит Бит/(Пиксели*Кадры) : 0.254 Размер потока : 7,92 Гбайт (89%) Заголовок : La tulipe noire / Rip by OldGamer Библиотека кодирования : x265 3.4+12-g9103319fc: 10bit Настройки программы : cpuid=1111039 / frame-threads=3 / numa-pools=8 / wpp / no-pmode / no-pme / no-psnr / no-ssim / log-level=2 / input-csp=1 / input-res=1920x856 / interlace=0 / total-frames=163056 / level-idc=41 / high-tier=1 / uhd-bd=0 / ref=5 / no-allow-non-conformance / no-repeat-headers / annexb / no-aud / no-hrd / info / hash=0 / no-temporal-layers / open-gop / min-keyint=23 / keyint=240 / gop-lookahead=0 / bframes=11 / b-adapt=2 / b-pyramid / bframe-bias=0 / rc-lookahead=40 / lookahead-slices=0 / scenecut=40 / hist-scenecut=0 / radl=0 / no-splice / no-intra-refresh / ctu=32 / min-cu-size=8 / rect / amp / max-tu-size=32 / tu-inter-depth=4 / tu-intra-depth=4 / limit-tu=1 / rdoq-level=2 / dynamic-rd=0.00 / no-ssim-rd / signhide / no-tskip / nr-intra=0 / nr-inter=0 / no-constrained-intra / no-strong-intra-smoothing / max-merge=5 / limit-refs=3 / no-limit-modes / me=3 / subme=7 / merange=57 / temporal-mvp / no-frame-dup / no-hme / weightp / weightb / no-analyze-src-pics / deblock=-2:-1 / no-sao / no-sao-non-deblock / rd=6 / selective-sao=0 / no-early-skip / rskip / no-fast-intra / no-tskip-fast / no-cu-lossless / b-intra / no-splitrd-skip / rdpenalty=0 / psy-rd=2.50 / psy-rdoq=1.30 / no-rd-refine / no-lossless / cbqpoffs=0 / crqpoffs=0 / rc=crf / crf=19.4 / qcomp=0.60 / qpstep=4 / stats-write=0 / stats-read=0 / vbv-maxrate=50000 / vbv-bufsize=50000 / vbv-init=0.9 / crf-max=0.0 / crf-min=0.0 / ipratio=1.40 / pbratio=1.30 / aq-mode=1 / aq-strength=1.00 / no-cutree / zone-count=1 / zones: / start-frame=162891 / end-frame=163056 / qp=35 / no-strict-cbr / qg-size=32 / no-rc-grain / qpmax=69 / qpmin=0 / no-const-vbv / sar=1 / overscan=0 / videoformat=5 / range=0 / colorprim=2 / transfer=2 / colormatrix=2 / chromaloc=0 / display-window=0 / cll=0,0 / min-luma=0 / max-luma=1023 / log2-max-poc-lsb=8 / vui-timing-info / vui-hrd-info / slices=1 / no-opt-qp-pps / no-opt-ref-list-length-pps / no-multi-pass-opt-rps / scenecut-bias=0.00 / hist-threshold=0.01 / no-opt-cu-delta-qp / no-aq-motion / no-hdr10 / no-hdr10-opt / no-dhdr10-opt / no-idr-recovery-sei / analysis-reuse-level=0 / analysis-save-reuse-level=0 / analysis-load-reuse-level=0 / scale-factor=0 / refine-intra=0 / refine-inter=0 / refine-mv=1 / refine-ctu-distortion=0 / no-limit-sao / ctu-info=0 / no-lowpass-dct / refine-analysis-type=0 / copy-pic=1 / max-ausize-factor=1.0 / no-dynamic-refine / no-single-sei / no-hevc-aq / no-svt / no-field / qp-adaptation-range=1.00 / no-scenecut-aware-qpconformance-window-offsets / right=0 / bottom=0 / decoder-max-rate=0 Язык : French Default : Да Forced : Нет Аудио #1 Идентификатор : 2 Формат : AC-3 Формат/Информация : Audio Coding 3 Коммерческое название : Dolby Digital Идентификатор кодека : A_AC3 Продолжительность : 1 ч. 53 м. Вид битрейта : Постоянный Битрейт : 192 Кбит/сек Каналы : 2 канала Channel layout : L R Частота : 48,0 КГц Частота кадров : 31,250 кадров/сек (1536 SPF) Метод сжатия : С потерями Размер потока : 155 Мбайт (2%) Заголовок : Dub (Союзмультфильм + вставки MVO) Язык : Russian Service kind : Complete Main Default : Да Forced : Нет Аудио #2 Идентификатор : 3 Формат : AC-3 Формат/Информация : Audio Coding 3 Коммерческое название : Dolby Digital Идентификатор кодека : A_AC3 Продолжительность : 1 ч. 53 м. Вид битрейта : Постоянный Битрейт : 448 Кбит/сек Каналы : 6 каналов Channel layout : L R C LFE Ls Rs Частота : 48,0 КГц Частота кадров : 31,250 кадров/сек (1536 SPF) Метод сжатия : С потерями Размер потока : 363 Мбайт (4%) Заголовок : MVO (R5) Язык : Russian Service kind : Complete Main Default : Нет Forced : Нет Аудио #3 Идентификатор : 4 Формат : AC-3 Формат/Информация : Audio Coding 3 Коммерческое название : Dolby Digital Идентификатор кодека : A_AC3 Продолжительность : 1 ч. 53 м. Вид битрейта : Постоянный Битрейт : 640 Кбит/сек Каналы : 2 канала Channel layout : L R Частота : 48,0 КГц Частота кадров : 31,250 кадров/сек (1536 SPF) Метод сжатия : С потерями Размер потока : 518 Мбайт (6%) Язык : French Service kind : Complete Main Default : Нет Forced : Нет Текст #1 Идентификатор : 5 Формат : UTF-8 Идентификатор кодека : S_TEXT/UTF8 Идентификатор кодека/Информация : UTF-8 Plain Text Продолжительность : 1 ч. 52 м. Битрейт : 61 бит/сек Count of elements : 1309 Размер потока : 50,6 Кбайт (0%) Заголовок : English Язык : English Default : Нет Forced : Нет Текст #2 Идентификатор : 6 Формат : UTF-8 Идентификатор кодека : S_TEXT/UTF8 Идентификатор кодека/Информация : UTF-8 Plain Text Продолжительность : 1 ч. 53 м. Битрейт : 65 бит/сек Count of elements : 1442 Размер потока : 54,0 Кбайт (0%) Заголовок : French Язык : French Default : Нет Forced : Нет Меню 00:00:00.000 : en:Chapter 00 00:11:02.000 : en:Chapter 01 00:22:55.625 : en:Chapter 02 00:29:55.583 : en:Chapter 03 00:39:12.500 : en:Chapter 04 00:48:38.750 : en:Chapter 05 00:55:47.125 : en:Chapter 06 01:05:50.541 : en:Chapter 07 01:15:51.083 : en:Chapter 08 01:24:32.916 : en:Chapter 09 01:34:16.750 : en:Chapter 10 01:43:36.208 : en:Chapter 11
[+] Скриншоты
Релиз от: OldGamer

Всего файлов в раздаче: 1 
Чёрный.тюльпан.La.Tulipe.Noire.1963.FRA.Transfer.BDRip-HEVC.1080p.mkv8.93 GB

Похожие раздачи по запросу - Чёрный
Сегодня magnet Робик Чёрный - Французский роман (2020) МР3 131.40 MB ↑ 0 ↓ 0
2024-03-29 magnet Иван Любенко - Клим Ардашев. Начало 3. Черный Арагац (2024) MP3 421.91 MB ↑ 0 ↓ 0
2024-03-20 magnet Черный тюльпан / La tulipe noire (1964) BDRip-AVC | D 3.91 GB ↑ 0 ↓ 0
2024-03-20 magnet Черный квадрат (1992) WEB-DLRip от New-Team 1.46 GB ↑ 0 ↓ 0
2024-03-20 magnet Черный тюльпан / La tulipe noire (1964) BDRip 720p | D, P 8.67 GB ↑ 0 ↓ 0
2024-03-20 magnet Чёрный тюльпан / La Tulipe Noire (1964) BDRip 1080p | D, P 10.53 GB ↑ 0 ↓ 0
2024-03-18 magnet Черный берег / Blackshore [S01] (2024) WEBRip | ViruseProject 3.82 GB ↑ 0 ↓ 0

Комментарии


Зарегистрируйтесь чтобы добавить комментарий
Торрент клиент
byTorrent - программа для загрузки торрент-файлов.

Скачать byTorrent.exe (1,5 МБ)

Скачать byTorrent.zip (0,6 МБ)

Поддержи torrent.by
российских рублей
(300 российских рублей это 4$)

Обратная связь rss

End game ©