↑↓torrent.by
Поиск
Логин:  Регистрация
Пароль:

Powerwolf - Blood Of The Saints (2011) FLAC

download Скачать торрент-файл   magnet Магнитная ссылка Размер: 429.62 MB Добавлен: 2024-03-20 17:00
Пиры будут получены из сети DHT
Последний сидер был замечен 2024-03-22 13:24
Исполнитель: Powerwolf Название: Blood Of The Saints Издатель: Fono Ltd. FO862CD Источник: Диск из личной коллекции Год: 2011 Жанр: Heavy-Metal, Power-Metal, Melodic-Metal, Symphonic-Metal Страна: Германия Кодек: FLAC Битрейт аудио: Lossless Формат: image+.cue+.log Продолжительность: 00:41:52 Рок-Энциклопедия
[+] Трек-лист01. Opening: Agnus Dei 02. Sanctified With Dynamite 03. We Drink Your Blood 04. Murder At Midnight 05. All We Need Is Blood 06. Dead Boys Don't Cry 07. Son Of A Wolf 08. Night Of The Werewolves 09. Phantom Of The Funeral 10. Die, Die, Crucified 11. Ira Sancti (When The Saints Are Going Wild)
[+] Отчёт ЕАСExact Audio Copy V1.6 from 23. October 2020 Отчёт EAC об извлечении, выполненном 22. февраля 2024, 13:28 POWERWOLF / "Blood Of The Saints" Дисковод: ASUS SBW-06C1S-U Adapter: 0 ID: 0 Режим чтения : Достоверность Использование точного потока : Да Отключение кэша аудио : Да Использование указателей C2 : Нет Коррекция смещения при чтении : 48 Способность читать области Lead-in и Lead-out : Нет Заполнение пропущенных сэмплов тишиной : Да Удаление блоков с тишиной в начале и конце : Нет При вычислениях CRC использовались нулевые сэмплы : Да Интерфейс : Установленный внешний ASPI-интерфейс Выходной формат : Пользовательский кодировщик Выбранный битрейт : 1024 kBit/s Качество : Высокий Добавление ID3-тега : Нет Утилита сжатия : C:Program Files (x86)Exact Audio CopyFlacflac.exe Дополнительные параметры : -8 -V -T "TITLE=%title%" -T "ARTIST=%artist%" -T "ALBUMARTIST=%albumartist%" -T "ALBUM=%albumtitle%" -T "DATE=%year%" -T "TRACKNUMBER=%tracknr%" -T "TRACKTOTAL=%numtracks%" -T "GENRE=%genre%" -T "COMMENT=%comment%" -T "PERFORMER=%albuminterpret%" -T "COMPOSER=%composer%" %source% -o %dest% TOC извлечённого CD Трек | Старт | Длительность | Начальный сектор | Конечный сектор --------------------------------------------------------------------- 1 | 0:00.00 | 0:48.53 | 0 | 3652 2 | 0:48.53 | 4:25.54 | 3653 | 23581 3 | 5:14.32 | 3:42.42 | 23582 | 40273 4 | 8:56.74 | 4:47.31 | 40274 | 61829 5 | 13:44.30 | 3:36.15 | 61830 | 78044 6 | 17:20.45 | 3:25.24 | 78045 | 93443 7 | 20:45.69 | 3:59.37 | 93444 | 111405 8 | 24:45.31 | 4:30.53 | 111406 | 131708 9 | 29:16.09 | 3:09.32 | 131709 | 145915 10 | 32:25.41 | 3:00.49 | 145916 | 159464 11 | 35:26.15 | 6:25.30 | 159465 | 188369 Характеристики диапазона извлечения и сообщения об ошибках Выбранный диапазон Имя файла D:RazdachiFilesPowerwolf Powerwolf - 2011 - Blood Of The Saints POWERWOLF - ''Blood Of The Saints''.wav Пиковый уровень 99.9 % Скорость извлечения 6.3 X Качество диапазона 99.9 % CRC теста 9CB8278F CRC копии 9CB8278F Копирование... OK Ошибок не произошло AccurateRip: сводка Трек 1 точность не определена (достоверность 124) , AccurateRip вернул (AR v2) Трек 2 точность не определена (достоверность 123) , AccurateRip вернул (AR v2) Трек 3 точность не определена (достоверность 123) , AccurateRip вернул (AR v2) Трек 4 точность не определена (достоверность 123) , AccurateRip вернул (AR v2) Трек 5 точность не определена (достоверность 123) , AccurateRip вернул (AR v2) Трек 6 точность не определена (достоверность 122) , AccurateRip вернул (AR v2) Трек 7 точность не определена (достоверность 122) , AccurateRip вернул (AR v2) Трек 8 точность не определена (достоверность 122) , AccurateRip вернул (AR v2) Трек 9 точность не определена (достоверность 122) , AccurateRip вернул (AR v2) Трек 10 точность не определена (достоверность 122) , AccurateRip вернул (AR v2) Трек 11 точность не определена (достоверность 122) , AccurateRip вернул (AR v2) Ни один трек не прошёл проверки на точность В вашей базе может быть иной вариант штамповки диска Конец отчёта ---- CUETools DB Plugin V2.1.6 found Submit result: TUVlBFrrUIYZ1biq1WFdUUIgcu0- has been confirmed Track | CTDB Status 1 | (667/668) Accurately ripped 2 | (668/668) Accurately ripped 3 | (668/668) Accurately ripped 4 | (666/668) Accurately ripped 5 | (668/668) Accurately ripped 6 | (667/668) Accurately ripped 7 | (667/668) Accurately ripped 8 | (666/668) Accurately ripped 9 | (668/668) Accurately ripped 10 | (668/668) Accurately ripped 11 | (666/668) Accurately ripped ==== Контрольная сумма отчёта EBE2A5B6436EA391AA5F1749450719F543FB020274821EF435F02412D75A5907 ====
Дополнительная информация: Powerwolf — пауэр-хеви-метал-группа из Германии. Основана в 2003 году в городе Саарбрюккен. Творчество коллектива базируется на сочетании христианских мотивов с мрачными хоровыми вставками и органными партиями. Творчество группы отличается от традиционного пауэр-метала преобладанием тёмных образов, использованием корпспэйнта, элементов готической музыки и песнями об оборотнях Трансильвании и легендах о вампирах. Время раздачи: В дневное время.

Всего файлов в раздаче: 17 
POWERWOLF - ''Blood Of The Saints''.cue1.57 kB
POWERWOLF - ''Blood Of The Saints''.flac301.37 MB
POWERWOLF - ''Blood Of The Saints''.log9.18 kB
Scans\Scan 01.jpg4.74 MB
Scans\Scan 02.jpg11.15 MB
Scans\Scan 03.jpg10.54 MB
Scans\Scan 04.jpg11.58 MB
Scans\Scan 05.jpg11.14 MB
Scans\Scan 06.jpg11.05 MB
Scans\Scan 07.jpg11.14 MB
Показать все файлы

Похожие раздачи по запросу - Powerwolf
2024-03-24 magnet Powerwolf - The Sacrament Of Sin (2018) FLAC 456.49 MB ↑ 0 ↓ 0
2024-03-23 magnet Powerwolf - Metallum Nostrum (2019) FLAC 402.79 MB ↑ 0 ↓ 0
2024-03-22 magnet Powerwolf - The Metal Mass Live (2016) FLAC 728.76 MB ↑ 0 ↓ 0
2024-03-22 magnet Powerwolf - Blessed And Possessed (2015) FLAC 990.09 MB ↑ 0 ↓ 0
2024-03-21 magnet Powerwolf - Preachers Of The Night (2013) FLAC 471.78 MB ↑ 0 ↓ 0
2024-03-20 magnet Powerwolf - Bible Of The Beast (2009) FLAC 422.97 MB ↑ 0 ↓ 0
2024-03-19 magnet Powerwolf - Lupus Dei (2007) FLAC 390.34 MB ↑ 0 ↓ 0

Комментарии


Зарегистрируйтесь чтобы добавить комментарий
Торрент клиент
byTorrent - программа для загрузки торрент-файлов.

Скачать byTorrent.exe (1,5 МБ)

Скачать byTorrent.zip (0,6 МБ)

Поддержи torrent.by
российских рублей
(300 российских рублей это 4$)

Обратная связь rss

End game ©