↑↓torrent.by
Поиск
Логин:  Регистрация
Пароль:

Иллюзия свободы / Manifest West (2022) BDRip 1080p от селезень | D

download Скачать торрент-файл   magnet Магнитная ссылка Размер: 8.13 GB Добавлен: 2024-03-21 05:00
Пиры будут получены из сети DHT
Последний сидер был замечен 2024-03-21 11:03
Информация о фильме Название: Иллюзия свободы Оригинальное название: Manifest West Год выхода: 2022 Жанр: триллер, драма Режиссер: Джо Дич, Луи Гибсон В ролях: Майкл Кудлиц, Аннет Махендру, Тим Хайдекер, Майло Гибсон, Ава Колкер, Лекси Колкер, Илэйн Као, Шерри Ли, Росс Тернер, Дайонн Одейн О фильме: История взросления, рассказанная глазами десятилетней девочки, чья семья переезжает в нетронутую североамериканскую пустыню. Это их попытка начать нормальную жизнь, процветать за счет земли и избежать давления современного общества. Но в семье нарастает внутреннее давление, и невозможно убежать от того, что происходит в вашем собственном доме, как бы далеко вы ни уехали в горы. Страна: США Студия: Wolf Haus Продолжительность: 01:30:45 Перевод: Дублированный Качество: BDRip 1080p Видео: MPEG-4 AVC, 1920x796, 12.0 Mbit/s, 23.976 fps Аудио #01: 48 kHz, AC3, 5.1, 384 Kbps | Дублированный | RUS | Аудио #02: 48 kHz, AC3, 5.1, 448 Kbps | Оригинал | ENG | Субтитры: Английские
[+] MIGeneral Unique ID : 105466419078005623333423406992273867938 (0x4F5817ED304F040960EA3A01A35A84A2) Complete name : H:VideoHManifest.West.2022.BDRip.1080p.seleZen.mkv Format : Matroska Format version : Version 4 File size : 8.13 GiB Duration : 1 h 30 min Overall bit rate : 12.8 Mb/s Frame rate : 23.976 FPS Movie name : Manifest West (2022) from seleZen Encoded date : 2024-03-20 18:33:22 UTC Writing application : mkvmerge v80.0 ('Roundabout') 64-bit Writing library : libebml v1.4.4 + libmatroska v1.7.1 Video ID : 1 Format : AVC Format/Info : Advanced Video Codec Format profile : High@L4.1 Format settings : CABAC / 5 Ref Frames Format settings, CABAC : Yes Format settings, Reference : 5 frames Codec ID : V_MPEG4/ISO/AVC Duration : 1 h 30 min Bit rate : 12.0 Mb/s Width : 1 920 pixels Height : 796 pixels Display aspect ratio : 2.40:1 Frame rate mode : Constant Frame rate : 23.976 (24000/1001) FPS Color space : YUV Chroma subsampling : 4:2:0 Bit depth : 8 bits Scan type : Progressive Bits/(Pixel*Frame) : 0.327 Stream size : 7.60 GiB (94%) Title : chr00t Writing library : x264 core 164 r3107 a8b68ebf Encoding settings : cabac=1 / ref=5 / deblock=1:-2:-2 / analyse=0x3:0x133 / me=umh / subme=11 / psy=1 / psy_rd=1.05:0.00 / mixed_ref=1 / me_range=48 / chroma_me=1 / trellis=2 / 8x8dct=1 / cqm=0 / deadzone=21,11 / fast_pskip=0 / chroma_qp_offset=-2 / threads=25 / lookahead_threads=2 / sliced_threads=0 / nr=0 / decimate=0 / interlaced=0 / bluray_compat=0 / constrained_intra=0 / bframes=3 / b_pyramid=2 / b_adapt=2 / b_bias=0 / direct=3 / weightb=1 / open_gop=0 / weightp=2 / keyint=240 / keyint_min=24 / scenecut=40 / intra_refresh=0 / rc_lookahead=240 / rc=2pass / mbtree=0 / bitrate=12000 / ratetol=1.0 / qcomp=0.60 / qpmin=0 / qpmax=69 / qpstep=4 / cplxblur=20.0 / qblur=0.5 / vbv_maxrate=62500 / vbv_bufsize=78125 / nal_hrd=none / filler=0 / ip_ratio=1.40 / pb_ratio=1.30 / aq=2:1.10 Language : English Default : Yes Forced : No Color range : Limited Color primaries : BT.709 Transfer characteristics : BT.709 Matrix coefficients : BT.709 Audio #1 ID : 2 Format : AC-3 Format/Info : Audio Coding 3 Commercial name : Dolby Digital Codec ID : A_AC3 Duration : 1 h 30 min Bit rate mode : Constant Bit rate : 384 kb/s Channel(s) : 6 channels Channel layout : L R C LFE Ls Rs Sampling rate : 48.0 kHz Frame rate : 31.250 FPS (1536 SPF) Compression mode : Lossy Stream size : 249 MiB (3%) Title : Dub Language : Russian Service kind : Complete Main Default : Yes Forced : No Audio #2 ID : 3 Format : AC-3 Format/Info : Audio Coding 3 Commercial name : Dolby Digital Codec ID : A_AC3 Duration : 1 h 30 min Bit rate mode : Constant Bit rate : 448 kb/s Channel(s) : 6 channels Channel layout : L R C LFE Ls Rs Sampling rate : 48.0 kHz Frame rate : 31.250 FPS (1536 SPF) Compression mode : Lossy Stream size : 291 MiB (3%) Title : Original Language : English Service kind : Complete Main Default : No Forced : No Text #1 ID : 4 Format : UTF-8 Codec ID : S_TEXT/UTF8 Codec ID/Info : UTF-8 Plain Text Duration : 1 h 26 min Bit rate : 48 b/s Frame rate : 0.213 FPS Count of elements : 1104 Stream size : 30.9 KiB (0%) Title : Full Language : English Default : No Forced : No Text #2 ID : 5 Format : UTF-8 Codec ID : S_TEXT/UTF8 Codec ID/Info : UTF-8 Plain Text Duration : 1 h 26 min Bit rate : 52 b/s Frame rate : 0.232 FPS Count of elements : 1207 Stream size : 33.5 KiB (0%) Title : SDH Language : English Default : No Forced : No Menu 00:00:00.000 : Chapter 1 00:13:04.784 : Chapter 2 00:26:50.609 : Chapter 3 00:40:13.411 : Chapter 4 00:54:25.345 : Chapter 5 01:10:23.219 : Chapter 6 01:26:19.216 : Chapter 7
Релиз: Присоединяйся к: Кликай на баннеры.

Всего файлов в раздаче: 1 
Manifest.West.2022.BDRip.1080p.seleZen.mkv8.13 GB

Похожие раздачи по запросу - Иллюзия
2024-03-30 magnet Великая небесная стена / Иллюзия рая / Tengoku Daimakyou [S01] (2023) BDRip-HEVC 1080p | D, L 18.18 GB ↑ 0 ↓ 0
2024-03-21 magnet Иллюзия свободы / Манифест Запад / Manifest West (2022) BDRip 1080p от ELEKTRI4KA | D 7.94 GB ↑ 0 ↓ 0
2024-03-21 magnet Иллюзия свободы / Манифест Запад / Manifest West (2022) BDRip от ELEKTRI4KA | D 1.46 GB ↑ 0 ↓ 0
2024-02-24 magnet Иллюзия превосходства / T.I.M. (2023) BDRip 1080p от Generalfilm | D 6.94 GB ↑ 0 ↓ 0
2024-02-23 magnet Иллюзия превосходства / T.I.M. (2023) BDRip-AVC от DoMiNo & селезень | D 1.46 GB ↑ 0 ↓ 0
2024-02-22 magnet Иллюзия превосходства / T.I.M. (2023) BDRip 1080p от селезень | D 8.23 GB ↑ 0 ↓ 0
2023-11-29 magnet Великая иллюзия / La grande illusion / Grand Illusion (1937) HDRip-AVC | P 2.19 GB ↑ 1 ↓ 0

Комментарии


Зарегистрируйтесь чтобы добавить комментарий
Торрент клиент
byTorrent - программа для загрузки торрент-файлов.

Скачать byTorrent.exe (1,5 МБ)

Скачать byTorrent.zip (0,6 МБ)

Поддержи torrent.by
российских рублей
(300 российских рублей это 4$)

Обратная связь rss

End game ©