↑↓torrent.by
Поиск
Логин:  Регистрация
Пароль:

Не пойман - не вор / Ni vu, ni connu (1958) BDRip 720p | D, P

download Скачать торрент-файл   magnet Магнитная ссылка Размер: 4.53 GB Добавлен: 2024-03-21 05:00
Пиры будут получены из сети DHT
Последний сидер был замечен 2024-04-02 20:12
Информация о фильме Название: Не пойман - не вор Оригинальное название: Ni vu, ni connu Год выхода: 1958 Жанр: комедия Режиссер: Ив Робер В ролях: Луи де Фюнес, Ноэль Адам, Фридерик Дюваллес, Клод Риш, Ролан Армонтель, Мадлен Барбюле, Пьер Стефен, Сабина Андре, Жан Белланже, Марк Бланшар О фильме: Монпаньяр — самый спокойный город Франции. Единственный возмутитель спокойствия — это рыночный торговец Блеро. Он имеет разрешение на продажу грибов на местном рынке, но поскольку спрос на рыбу высок, то Блеро в свободное время нелегально рыбачит и тайком продает рыбу без разрешения. Жандармы пытаются поймать браконьера, но безуспешно. Когда на одного из жандармов совершается нападение, подозрение падает на Блеро, и его сажают в тюрьму на месяц. Внезапно объявляется настоящий преступник, и Блеро надеется выйти на свободу. Но обстоятельства складываются иначе… Страна: Франция Студия: Champs-Élysées Productions Продолжительность: 01:29:39 Перевод: Профессиональный (дублированный) киностудия им. М.Горького + Профессиональный (многоголосый, закадровый) R5 Файл Формат: Matroska Качество: BDRip 720p Видео: 1196x720 at 24.000 fps, x264@L4.1, ~6328 kbps avg Аудио#1: Russian: 48 kHz, AC3 Dolby Digital, 2/0 (L,R) ch, ~192 kbps |Дубляж, киностудия им. М.Горького| Аудио#2: Russian: 48 kHz, AC3 Dolby Digital, 2/0 (L,R) ch, ~384 kbps |Многоголосый закадровый, R5| Аудио#3: French: 48 kHz, AC3 Dolby Digital, 2/0 (L,R) ch, ~192 kbps Субтитры: None ***Сохранены оригинальные главы как на Blu-ray. ***Релиз - msltel.
[+] MIОбщее Уникальный идентификатор : 196534591988696454232451652464393712499 (0x93DB2F824B8D4C6CB1AB5741587DF373) Полное имя : Не пойман - не вор.1958.BDRip.720p by msltel.mkv Формат : Matroska Версия формата : Version 4 / Version 2 Размер файла : 4,53 Гбайт Продолжительность : 1 ч. 29 м. Общий поток : 7240 Кбит/сек Название фильма : Rip by msltel Дата кодирования : UTC 2016-11-03 07:43:28 Программа кодирования : mkvmerge v8.2.0 ('World of Adventure') 64bit Библиотека кодирования : libebml v1.3.1 + libmatroska v1.4.2 Видео Идентификатор : 1 Формат : AVC Формат/Информация : Advanced Video Codec Профиль формата : High@L4.1 Параметр CABAC формата : Да Параметр ReFrames формата : 9 кадров Идентификатор кодека : V_MPEG4/ISO/AVC Продолжительность : 1 ч. 29 м. Битрейт : 6328 Кбит/сек Ширина : 1196 пикселей Высота : 720 пикселей Соотношение сторон : 1,661 Режим частоты кадров : Постоянный Частота кадров : 24,000 кадра/сек Цветовое пространство : YUV Субдискретизация насыщенности : 4:2:0 Битовая глубина : 8 бит Тип развёртки : Прогрессивная Бит/(Пиксели*Кадры) : 0.306 Размер потока : 3,96 Гбайт (87%) Заголовок : Rip by msltel Библиотека кодирования : x264 core 146 r2538 121396c Настройки программы : cabac=1 / ref=9 / deblock=1:-3:-3 / analyse=0x3:0x113 / me=umh / subme=10 / psy=1 / psy_rd=1.00:0.15 / mixed_ref=1 / me_range=32 / chroma_me=1 / trellis=2 / 8x8dct=1 / cqm=0 / deadzone=21,11 / fast_pskip=0 / chroma_qp_offset=-3 / threads=6 / lookahead_threads=1 / sliced_threads=0 / nr=0 / decimate=1 / interlaced=0 / bluray_compat=0 / constrained_intra=0 / bframes=6 / b_pyramid=2 / b_adapt=2 / b_bias=0 / direct=1 / weightb=1 / open_gop=0 / weightp=2 / keyint=230 / keyint_min=23 / scenecut=40 / intra_refresh=0 / rc_lookahead=40 / rc=crf / mbtree=0 / crf=18.0 / qcomp=0.60 / qpmin=0 / qpmax=69 / qpstep=4 / vbv_maxrate=40000 / vbv_bufsize=50000 / crf_max=0.0 / nal_hrd=none / filler=0 / ip_ratio=1.40 / pb_ratio=1.30 / aq=1:1.00 Язык : French Default : Да Forced : Нет Аудио #1 Идентификатор : 2 Формат : AC-3 Формат/Информация : Audio Coding 3 Расширение режима : CM (complete main) Параметр Endianness формата : Big Идентификатор кодека : A_AC3 Продолжительность : 1 ч. 29 м. Вид битрейта : Постоянный Битрейт : 192 Кбит/сек Каналы : 2 канала Расположение каналов : Front: L R Частота : 48,0 КГц Битовая глубина : 16 бит Метод сжатия : С потерями Размер потока : 123 Мбайт (3%) Заголовок : DUB (киностудия им. М.Горького) Язык : Russian Default : Да Forced : Нет Аудио #2 Идентификатор : 3 Формат : AC-3 Формат/Информация : Audio Coding 3 Расширение режима : CM (complete main) Параметр Endianness формата : Big Идентификатор кодека : A_AC3 Продолжительность : 1 ч. 29 м. Вид битрейта : Постоянный Битрейт : 384 Кбит/сек Каналы : 2 канала Расположение каналов : Front: L R Частота : 48,0 КГц Битовая глубина : 16 бит Метод сжатия : С потерями Размер потока : 246 Мбайт (5%) Заголовок : MVO Язык : Russian Default : Нет Forced : Нет Аудио #3 Идентификатор : 4 Формат : AC-3 Формат/Информация : Audio Coding 3 Расширение режима : CM (complete main) Параметр Endianness формата : Big Идентификатор кодека : A_AC3 Продолжительность : 1 ч. 29 м. Вид битрейта : Постоянный Битрейт : 192 Кбит/сек Каналы : 2 канала Расположение каналов : Front: L R Частота : 48,0 КГц Битовая глубина : 16 бит Метод сжатия : С потерями Размер потока : 123 Мбайт (3%) Заголовок : original Язык : French Default : Нет Forced : Нет Меню 00:00:00.000 : :Chapter 01 00:07:14.333 : :Chapter 02 00:14:52.957 : :Chapter 03 00:24:12.708 : :Chapter 04 00:30:03.915 : :Chapter 05 00:37:39.125 : :Chapter 06 00:44:27.207 : :Chapter 07 00:52:24.375 : :Chapter 08 01:01:35.291 : :Chapter 09 01:07:39.166 : :Chapter 10 01:13:50.500 : :Chapter 11 01:23:23.582 : :Chapter 12 01:29:39.750 : :Chapter 13
[+] Скриншоты

Всего файлов в раздаче: 1 
Не пойман - не вор.1958.BDRip.720p by msltel.mkv4.53 GB

Комментарии

cbet2007
Отличный фильм посмеялся от души очень душевно


Зарегистрируйтесь чтобы добавить комментарий
Торрент клиент
byTorrent - программа для загрузки торрент-файлов.

Скачать byTorrent.exe (1,5 МБ)

Скачать byTorrent.zip (0,6 МБ)

Поддержи torrent.by
российских рублей
(300 российских рублей это 4$)

Обратная связь rss

End game ©