↑↓torrent.by
Поиск
Логин:  Регистрация
Пароль:

Истории большой страны [01x01-15] (2022-2024) WEBRip-AVC от Generalfilm | КПК

download Скачать торрент-файл   magnet Магнитная ссылка Размер: 3.24 GB Добавлен: 2024-03-21 11:00
Пиры будут получены из сети DHT
Последний сидер был замечен 2024-03-21 11:00
Информация о фильме Оригинальное название: Истории большой страны Год выхода: 2022 Жанр: Комедия, скетчком Режиссер: Алёна Корчагина (II) В ролях: Нонна Гришаева, Максим Лагашкин, Ольга Тумайкина, Алексей Маклаков, Михаил Полицеймако, Станислав Дужников, Алина Алексеева (II), Георгий Дронов, Татьяна Орлова, Юрий Ицков, Ёла Санько, Мария Кравченко, Максим Киселев (II), Светлана Пермякова, Арина Постникова, Денис Бузин, Иван Пышненко, Ренат Мухамбаев, Иван Агапов, Павел Мисаилов, Александр Нестеров (II), Данил Никитин, Илья Васильев (II) О сериале: "Истории большой страны" - смешные и остроумные истории из нашей повседневной жизни в исполнении любимых актеров в образах персонажей, в которых каждый узнает своего соседа, начальника, мужа, жену или коллегу. "Истории большой страны" – это короткие, но весьма уморительные скетчи из повседневной жизни, в которых может оказаться каждый из нас: например девушка приезжает в автосервис в надежде скрыть от мужа царапины на помятой машине; жена в супермаркете вырубает броском консервов собственного мужа; директриса, спасаясь от школьной проверки, покоряет высоту спортзала на канате; начальник меняет команду, взяв за ориентир... габариты подчиненных; пенсионерка устраивает тест на скорость городским спецслужбам; риелтор демонстрирует клиентам достоинства звукоизоляции с помощью пугача, а сотрудники ДПС получают чистосердечное признание нетрезвого водителя весьма нетривиальным артистичным способом... Страна: Россия Студия: Comedy Club Production Продолжительность: 15 х ~ 00:49:00 Перевод: Не требуется Файл Формат: MP4 Качество: WEBRip-AVC Видео: MPEG-4 AVC (x264), 640x360, ~ 500 kbps, 25.000 fps Аудио: AAC LC, 48.0 KHz, 2 ch, 128 Kbps Субтитры: Нет
[+] Скриншоты
[+] MIComplete name : F:КИНОIstorii.Bol'shoi.Strany.S01.2022.WEBRip-AVC.KPK.GFIstorii.Bol'shoi.Strany.s01e01.2022.WEBRip-AVC.KPK.GF.mp4 Format : MPEG-4 Codec ID : M4V (isom/iso2/avc1) File size : 222 MiB Duration : 48 min 57 s Overall bit rate mode : Variable Overall bit rate : 634 kb/s Writing application : Lavf53.19.0 Video ID : 1 Format : AVC Format/Info : Advanced Video Codec Format profile : High@L4.1 Format settings, CABAC : Yes Format settings, RefFrames : 8 frames Codec ID : avc1 Codec ID/Info : Advanced Video Coding Duration : 48 min 57 s Bit rate : 500 kb/s Width : 640 pixels Height : 360 pixels Display aspect ratio : 16:9 Frame rate mode : Constant Frame rate : 25.000 FPS Color space : YUV Chroma subsampling : 4:2:0 Bit depth : 8 bits Scan type : Progressive Bits/(Pixel*Frame) : 0.087 Stream size : 175 MiB (79%) Writing library : x264 core 148 r2638 7599210 Encoding settings : cabac=1 / ref=8 / deblock=1:-1:-1 / analyse=0x3:0x133 / me=umh / subme=10 / psy=1 / psy_rd=1.00:0.00 / mixed_ref=1 / me_range=24 / chroma_me=1 / trellis=2 / 8x8dct=1 / cqm=0 / deadzone=21,11 / fast_pskip=1 / chroma_qp_offset=-2 / threads=6 / lookahead_threads=1 / sliced_threads=0 / nr=0 / decimate=1 / interlaced=0 / bluray_compat=0 / constrained_intra=0 / bframes=8 / b_pyramid=2 / b_adapt=2 / b_bias=0 / direct=3 / weightb=1 / open_gop=0 / weightp=2 / keyint=250 / keyint_min=126 / scenecut=40 / intra_refresh=0 / rc_lookahead=40 / rc=2pass / mbtree=1 / bitrate=500 / ratetol=1.0 / qcomp=0.60 / qpmin=0 / qpmax=69 / qpstep=4 / cplxblur=20.0 / qblur=0.5 / ip_ratio=1.40 / aq=1:1.00 Menus : 3 Audio ID : 2 Format : AAC Format/Info : Advanced Audio Codec Format profile : LC Codec ID : 40 Duration : 48 min 57 s Bit rate mode : Variable Bit rate : 128 kb/s Channel(s) : 2 channels Channel positions : Front: L R Sampling rate : 48.0 kHz Frame rate : 46.875 FPS (1024 SPF) Compression mode : Lossy Stream size : 44.8 MiB (20%) Default : Yes Alternate group : 1 Menus : 3
Релиз от:

Всего файлов в раздаче: 15 
Istorii.Bol'shoi.Strany.s01e01.2022.WEBRip-AVC.KPK.GF.mp4221.89 MB
Istorii.Bol'shoi.Strany.s01e02.2022.WEBRip-AVC.KPK.GF.mp4220.13 MB
Istorii.Bol'shoi.Strany.s01e03.2022.WEBRip-AVC.KPK.GF.mp4217.45 MB
Istorii.Bol'shoi.Strany.s01e04.2022.WEBRip-AVC.KPK.GF.mp4222.73 MB
Istorii.Bol'shoi.Strany.s01e05.2022.WEBRip-AVC.KPK.GF.mp4221.80 MB
Istorii.Bol'shoi.Strany.s01e06.2022.WEBRip-AVC.KPK.GF.mp4218.80 MB
Istorii.Bol'shoi.Strany.s01e07.2022.WEBRip-AVC.KPK.GF.mp4219.97 MB
Istorii.Bol'shoi.Strany.s01e08.2022.WEBRip-AVC.KPK.GF.mp4220.56 MB
Istorii.Bol'shoi.Strany.s01e09.2022.WEBRip-AVC.KPK.GF.mp4223.61 MB
Istorii.Bol'shoi.Strany.s01e10.2022.WEBRip-AVC.KPK.GF.mp4222.45 MB
Показать все файлы

Похожие раздачи по запросу - Истории
2024-04-06 magnet Сборник лучших короткометражных фильмов из Италии 4: Истории нашей жизни / Italian Best Shorts 4 (2020) WEB-DL 1080p | P 3.10 GB ↑ 0 ↓ 0
2024-03-29 magnet Серия - «Страницы истории» [45 книг] (2013-2022) FB2, PDF 299.21 MB ↑ 0 ↓ 0
2024-03-18 magnet Истории большой страны [01-15] (2022) WEBRip 720p от Files-x 10.17 GB ↑ 0 ↓ 0
2024-03-17 magnet Истории большой страны [01x01-15] (2022-2024) WEBRip от Files-x 9.26 GB ↑ 0 ↓ 0
2024-03-12 magnet Серия - «Великолепные детективные истории» [63 книги] (2018-2024) FB2 76.04 MB ↑ 0 ↓ 0
2023-11-11 magnet Эрвин-Бланкенхайм Э. - Автобиография Земли. 4,6 миллиарда лет захватывающей истории нашей планеты (2023) FB2 1К18.92 MB ↑ 0 ↓ 0
2023-10-27 magnet Серия «Новейшие исследования по истории России» [44 книги] (2017-2023) FB2, PDF 155.95 MB ↑ 0 ↓ 0

Комментарии


Зарегистрируйтесь чтобы добавить комментарий
Торрент клиент
byTorrent - программа для загрузки торрент-файлов.

Скачать byTorrent.exe (1,5 МБ)

Скачать byTorrent.zip (0,6 МБ)

Поддержи torrent.by
российских рублей
(300 российских рублей это 4$)

Обратная связь rss

End game ©