↑↓torrent.by
Поиск
Логин:  Регистрация
Пароль:

Шесть дней, семь ночей / Six Days Seven Nights (1998) WEB-DLRip 720p от New-Team | D, P, P1, A

download Скачать торрент-файл   magnet Магнитная ссылка Размер: 2.91 GB Добавлен: 2024-03-21 11:00
Пиры будут получены из сети DHT
Последний сидер был замечен 2024-03-21 11:00
Страна: США Производство: Dream Quest Images, The Computer Film Company, Illusion Arts Inc., Image G, Post Logic Studios Жанр: боевик, мелодрама, комедия, приключения Год выпуска: 1998 Продолжительность: 01:41:57 Перевод: Профессиональный (полное дублирование) Нева-1, Профессиональный (многоголосый, закадровый) ОРТ, Профессиональный (одноголосый, закадровый) Диктор CDV, Авторский (одноголосый закадровый) Н. Антонов, С. Визгунов, Юрий Живов Оригинальная аудиодорожка: английский Cубтитры: русский Режиссер: Айвен Райтман / Ivan Reitman В ролях: Харрисон Форд, Энн Хэш, Дэвид Швиммер, Жаклин Обрадорс, Темура Моррисон, Эллисон Дженни, Дуглас Уэстон, Клифф Кертис, Дэнни Трехо, Бен Боуд... Подробнее об актерах Роли дублировали: Станислав Концевич, Галина Чигинская, Владимир Маслаков, Елена Павловская, Татьяна Иванова... Описание: Небольшой самолет терпит катастрофу на необитаемом острове. Отважный летчик и его очаровательная пассажирка оказались совершенно одни среди дикой природы. Они отчаянно пытаются сообщить о себе, но не знают, что их уже давно перестали искать. Наконец, впервые за эти дни на пустынном горизонте показался странный корабль, который причалил к затерянному острову. Но вместо того, чтобы улыбнуться невезучей парочке, судьба снова посмеялась над ними. Вооруженные до зубов пираты так не похожи на долгожданных спасителей! Пилот и его спутница так стремились оказаться в веселой компании. Теперь они хотят снова остаться наедине… Исходник: WEB-DLRip 1080p Тип релиза: WEB-DLRip 720p Контейнер: MKV Видео: 1280x540 (2,39:1), 23,976 кадра/сек, x264 core 164 r3182 ~ 2 740 кбит/сек, 0.165 бит/пиксель Аудио: 48 кГц, Dolby Digital AC3 2.0, 192 кбит/сек DUB Нева-1 Аудио: 48 кГц, Dolby Digital AC3 2.0, 192 кбит/сек MVO ОРТ Аудио: 48 кГц, Dolby Digital AC3 2.0, 192 кбит/сек OVO Диктор CDV Аудио: 48 кГц, Dolby Digital AC3 2.0, 192 кбит/сек MVO Н. Антонов Аудио: 48 кГц, Dolby Digital AC3 2.0, 192 кбит/сек MVO С. Визгунов Аудио: 48 кГц, Dolby Digital AC3 2.0, 192 кбит/сек AVO Юрий Живов Аудио: 48 кГц, Dolby Digital AC3 2.0, 192 кбит/сек Английский Субтитры: SoftSub (srt) Оригинальная навигация по главам: есть Раздача от:
[+] MediaInfo Общее Полное имя : Шесть дней, семь ночей.1998.WEB-DLRip720p__by_AVP_Studio.mkv Формат : Matroska Версия формата : Version 4 Размер файла : 2,91 Гбайт Продолжительность : 1 ч. 41 м. Общий поток : 4 084 Кбит/сек Частота кадров : 23,976 кадра/сек Дата кодирования : 2024-03-20 16:46:38 UTC Программа кодирования : mkvmerge v83.0 ('Circle Of Friends') 64-bit Библиотека кодирования : libebml v1.4.5 + libmatroska v1.7.1 Видео Идентификатор : 1 Формат : AVC Формат/Информация : Advanced Video Codec Профиль формата : High@L4.1 Настройки формата : CABAC / 8 Ref Frames Параметр CABAC формата : Да Параметр RefFrames формата : 8 кадров Идентификатор кодека : V_MPEG4/ISO/AVC Продолжительность : 1 ч. 41 м. Битрейт : 2 740 Кбит/сек Ширина : 1 280 пикселей Высота : 540 пикселей Соотношение сторон : 2,39:1 Режим частоты кадров : Постоянный Частота кадров : 23,976 (24000/1001) кадра/сек Цветовое пространство : YUV Субдискретизация насыщенности : 4:2:0 Битовая глубина : 8 бит Тип развёртки : Прогрессивная Бит/(Пиксели*Кадры) : 0.165 Размер потока : 1,95 Гбайт (67%) Заголовок : Исходник BDRemux Библиотека кодирования : x264 core 164 r3182 be4f020 Настройки программы : cabac=1 / ref=8 / deblock=1:-3:-3 / analyse=0x3:0x133 / me=umh / subme=10 / psy=1 / psy_rd=1.00:0.00 / mixed_ref=1 / me_range=32 / chroma_me=1 / trellis=2 / 8x8dct=1 / cqm=0 / deadzone=21,11 / fast_pskip=1 / chroma_qp_offset=-2 / threads=6 / lookahead_threads=1 / sliced_threads=0 / nr=0 / decimate=0 / interlaced=0 / bluray_compat=0 / constrained_intra=0 / bframes=8 / b_pyramid=2 / b_adapt=2 / b_bias=0 / direct=3 / weightb=1 / open_gop=0 / weightp=2 / keyint=240 / keyint_min=24 / scenecut=40 / intra_refresh=0 / rc=2pass / mbtree=0 / bitrate=2740 / ratetol=1.0 / qcomp=0.60 / qpmin=0 / qpmax=69 / qpstep=4 / cplxblur=20.0 / qblur=0.5 / ip_ratio=1.40 / pb_ratio=1.30 / aq=1:1.00 Язык : English Default : Да Forced : Нет Аудио #1 Идентификатор : 2 Формат : AC-3 Формат/Информация : Audio Coding 3 Коммерческое название : Dolby Digital Идентификатор кодека : A_AC3 Продолжительность : 1 ч. 41 м. Вид битрейта : Постоянный Битрейт : 192 Кбит/сек Каналы : 6 каналов Channel layout : L R C LFE Ls Rs Частота : 48,0 КГц Частота кадров : 31,250 кадров/сек (1536 SPF) Метод сжатия : С потерями Размер потока : 140 Мбайт (5%) Заголовок : Профессиональный (дублированный) Нева-1 Язык : Russian Default : Да Forced : Нет Аудио #2 Идентификатор : 3 Формат : AC-3 Формат/Информация : Audio Coding 3 Коммерческое название : Dolby Digital Идентификатор кодека : A_AC3 Продолжительность : 1 ч. 41 м. Вид битрейта : Постоянный Битрейт : 192 Кбит/сек Каналы : 2 канала Channel layout : L R Частота : 48,0 КГц Частота кадров : 31,250 кадров/сек (1536 SPF) Метод сжатия : С потерями Размер потока : 140 Мбайт (5%) Заголовок : Профессиональный (многоголосый закадровый) ОРТ Язык : Russian Default : Да Forced : Нет Аудио #3 Идентификатор : 4 Формат : AC-3 Формат/Информация : Audio Coding 3 Коммерческое название : Dolby Digital Идентификатор кодека : A_AC3 Продолжительность : 1 ч. 41 м. Вид битрейта : Постоянный Битрейт : 192 Кбит/сек Каналы : 2 канала Channel layout : L R Частота : 48,0 КГц Частота кадров : 31,250 кадров/сек (1536 SPF) Метод сжатия : С потерями Размер потока : 140 Мбайт (5%) Заголовок : Профессиональный (одноголосый закадровый) Диктор CDV Язык : Russian Default : Да Forced : Нет Аудио #4 Идентификатор : 5 Формат : AC-3 Формат/Информация : Audio Coding 3 Коммерческое название : Dolby Digital Идентификатор кодека : A_AC3 Продолжительность : 1 ч. 41 м. Вид битрейта : Постоянный Битрейт : 192 Кбит/сек Каналы : 2 канала Channel layout : L R Частота : 48,0 КГц Частота кадров : 31,250 кадров/сек (1536 SPF) Метод сжатия : С потерями Размер потока : 140 Мбайт (5%) Заголовок : Авторский Н. Антонов Язык : Russian Default : Да Forced : Нет Аудио #5 Идентификатор : 6 Формат : AC-3 Формат/Информация : Audio Coding 3 Коммерческое название : Dolby Digital Идентификатор кодека : A_AC3 Продолжительность : 1 ч. 41 м. Вид битрейта : Постоянный Битрейт : 192 Кбит/сек Каналы : 2 канала Channel layout : L R Частота : 48,0 КГц Частота кадров : 31,250 кадров/сек (1536 SPF) Метод сжатия : С потерями Размер потока : 140 Мбайт (5%) Заголовок : Авторский С. Визгунов Язык : Russian Default : Да Forced : Нет Аудио #6 Идентификатор : 7 Формат : AC-3 Формат/Информация : Audio Coding 3 Коммерческое название : Dolby Digital Идентификатор кодека : A_AC3 Продолжительность : 1 ч. 41 м. Вид битрейта : Постоянный Битрейт : 192 Кбит/сек Каналы : 2 канала Channel layout : L R Частота : 48,0 КГц Частота кадров : 31,250 кадров/сек (1536 SPF) Метод сжатия : С потерями Размер потока : 140 Мбайт (5%) Заголовок : Авторский Ю. Живов Язык : Russian Default : Да Forced : Нет Аудио #7 Идентификатор : 8 Формат : AC-3 Формат/Информация : Audio Coding 3 Коммерческое название : Dolby Digital Идентификатор кодека : A_AC3 Продолжительность : 1 ч. 41 м. Вид битрейта : Постоянный Битрейт : 192 Кбит/сек Каналы : 2 канала Channel layout : L R Частота : 48,0 КГц Частота кадров : 31,250 кадров/сек (1536 SPF) Метод сжатия : С потерями Размер потока : 140 Мбайт (5%) Заголовок : Оригинал Язык : English Default : Да Forced : Нет Текст Идентификатор : 9 Формат : UTF-8 Идентификатор кодека : S_TEXT/UTF8 Идентификатор кодека/Информация : UTF-8 Plain Text Продолжительность : 1 ч. 35 м. Битрейт : 69 бит/сек Частота кадров : 0,166 кадр/сек Count of elements : 956 Размер потока : 49,1 Кбайт (0%) Заголовок : SRT Язык : Russian Default : Нет Forced : Нет Меню 00:00:00.000 : en:Main Title / Vacation Bound 00:05:33.491 : en:The Charter Plane 00:10:48.973 : en:Pilot And Philosopher 00:14:04.688 : en:Duty Calls 00:18:45.367 : en:Flying Into A Storm 00:21:24.942 : en:Trouble Brewing 00:27:30.332 : en:Shipwrecked 00:36:00.150 : en:Not Without Skills 00:43:58.919 : en:Misfire 00:46:35.618 : en:In Good Hands 00:48:32.796 : en:In Need Of A Beacon 00:53:57.477 : en:Dangerous Company 01:01:11.951 : en:Making A Jump For It 01:06:08.497 : en:Enticing Invitation 01:07:45.095 : en:Resisting The Invitation 01:10:28.425 : en:After A Terrible Ordeal 01:18:17.185 : en:Under Fire 01:22:28.019 : en:Hold The Funeral 01:27:28.903 : en:Keeping Things Simple 01:30:55.067 : en:The Engagement's Off 01:33:23.048 : en:Complicating Things 01:36:28.687 : en:End Credits
[+] Скриншоты

Всего файлов в раздаче: 1 
Шесть дней, семь ночей.1998.WEB-DLRip720p_[New-team]_by_AVP_Studio.mkv2.91 GB

Похожие раздачи по запросу - Шесть
2023-12-15 magnet Шесть шведок с бензоколонки / Sechs Schwedinnen von der Tankstelle (1980) HDRip | А 700.74 MB ↑ 1 ↓ 0
2023-11-18 magnet Шесть шведок в Альпах / Sechs Schwedinnen auf der Alm (1983) BDRip-AVC | A 1К1.81 GB ↑ 1 ↓ 0
2021-12-04 magnet Шесть дней, семь ночей / Six Days Seven Nights (1998) WEB-DL 1080p | D, P, A 3К9.11 GB ↑ 1 ↓ 0

Комментарии


Зарегистрируйтесь чтобы добавить комментарий
Торрент клиент
byTorrent - программа для загрузки торрент-файлов.

Скачать byTorrent.exe (1,5 МБ)

Скачать byTorrent.zip (0,6 МБ)

Поддержи torrent.by
российских рублей
(300 российских рублей это 4$)

Обратная связь rss

End game ©