↑↓torrent.by
Поиск
Логин:  Регистрация
Пароль:

Детектив Табо / Thabo and the Rhino Case (2023) WEB-DL 1080p | D

download Скачать торрент-файл   magnet Магнитная ссылка Размер: 3.84 GB Добавлен: 2024-03-21 11:00
Пиры будут получены из сети DHT
Последний сидер был замечен 2024-03-25 17:02
Информация Название: Детектив Табо Оригинальное название: Thabo and the Rhino Case Год выхода: 2023 Жанр: Детектив, приключения, семейный Режиссер: Мара Эйбль-Эйбесфельдт В ролях: Литлхохонолофатсо Литлхакаяне, Ава Скуратовски, Кумкани Пилонти, Нисси Бодибе, Вутихари Сибизи, Андреа Завацки, Нхлаканифо Манкеле, Кеннет Нкоси, Гонце Нчеганг, Летлотло Зимхита Молабенг Описание: Одиннадцатилетний Табо хочет стать детективом, как в кино. Одно только но: его дом — маленькая африканская деревушка — мирный уголок саванны, где ничего не происходит. Но все меняется, когда в соседнем сафари-парке убивают носорога. Теперь Табо и его новой подруге Эмме предстоит не только позаботиться об оставленном детеныше носорога, но и провести расследование и поймать преступников. Страна: Германия Студия: Desert Flower Filmproduktion Продолжительность: 01:36:30 Перевод: Профессиональный (полное дублирование) | Pride Production Файл Формат: MKV Качество: WEB-DL 1080p Видео: MPEG-4 AVC, 5000 Кбит/с, 1920x800 Аудио: Русский (AC3, 6 ch, 384 Кбит/с), (E-AC3, 6 ch, 384 Кбит/с) Субтитры: Отсутствуют
[+] MediaInfoGeneral Unique ID : 159022403956611722399420893924047533267 (0x77A299D891F518A6ADBA4F03661534D3) Complete name : Detektiv.Tabo.2023.D.WEB-DL.1080p.ELEKTRI4KA.UNIONGANG.mkv Format : Matroska Format version : Version 4 File size : 3.84 GiB Duration : 1 h 36 min Overall bit rate : 5 704 kb/s Frame rate : 24.000 FPS Movie name : Detektiv Tabo (2023) ELEKTRI4KA.UNIONGANG Encoded date : 2024-03-20 23:35:27 UTC Writing application : mkvmerge v83.0 ('Circle Of Friends') 64-bit Writing library : libebml v1.4.5 + libmatroska v1.7.1 / Lavf60.10.100 Video ID : 1 Format : AVC Format/Info : Advanced Video Codec Format profile : High@L4 Format settings : CABAC / 3 Ref Frames Format settings, CABAC : Yes Format settings, Reference frames : 3 frames Codec ID : V_MPEG4/ISO/AVC Duration : 1 h 36 min Bit rate : 5 000 kb/s Width : 1 920 pixels Height : 800 pixels Display aspect ratio : 2.40:1 Frame rate mode : Constant Frame rate : 24.000 FPS Color space : YUV Chroma subsampling : 4:2:0 Bit depth : 8 bits Scan type : Progressive Bits/(Pixel*Frame) : 0.136 Stream size : 3.33 GiB (86%) Title : Detektiv.Tabo.2023.D.WEB-DL.1080p.ELEKTRI4KA.UNIONGANG Writing library : x264 core 164 r3095 baee400 Encoding settings : cabac=1 / ref=4 / deblock=1:-1:-1 / analyse=0x3:0x133 / me=umh / subme=9 / psy=1 / psy_rd=0.40:1.00 / mixed_ref=1 / me_range=24 / chroma_me=1 / trellis=0 / 8x8dct=1 / cqm=0 / deadzone=21,11 / fast_pskip=1 / chroma_qp_offset=-2 / threads=3 / lookahead_threads=1 / sliced_threads=0 / nr=0 / decimate=1 / interlaced=0 / bluray_compat=0 / stitchable=1 / constrained_intra=0 / bframes=8 / b_pyramid=1 / b_adapt=0 / b_bias=0 / direct=3 / weightb=1 / open_gop=0 / weightp=2 / keyint=72 / keyint_min=37 / scenecut=0 / intra_refresh=0 / rc_lookahead=40 / rc=2pass / mbtree=1 / bitrate=5000 / ratetol=1.0 / qcomp=0.80 / qpmin=1 / qpmax=69 / qpstep=4 / cplxblur=20.0 / qblur=0.5 / vbv_maxrate=7500 / vbv_bufsize=10000 / nal_hrd=none / filler=0 / ip_ratio=1.40 / aq=1:1.00 Default : Yes Forced : No Color range : Limited Color primaries : BT.709 Transfer characteristics : BT.709 Matrix coefficients : BT.709 Audio #1 ID : 2 Format : AC-3 Format/Info : Audio Coding 3 Commercial name : Dolby Digital Codec ID : A_AC3 Duration : 1 h 36 min Bit rate mode : Constant Bit rate : 384 kb/s Channel(s) : 6 channels Channel layout : L R C LFE Ls Rs Sampling rate : 48.0 kHz Frame rate : 31.250 FPS (1536 SPF) Compression mode : Lossy Stream size : 265 MiB (7%) Title : Dub Language : Russian Service kind : Complete Main Default : Yes Forced : No Audio #2 ID : 3 Format : E-AC-3 Format/Info : Enhanced AC-3 Commercial name : Dolby Digital Plus Codec ID : A_EAC3 Duration : 1 h 36 min Bit rate mode : Constant Bit rate : 384 kb/s Channel(s) : 6 channels Channel layout : L R C LFE Ls Rs Sampling rate : 48.0 kHz Frame rate : 31.250 FPS (1536 SPF) Compression mode : Lossy Stream size : 265 MiB (7%) Title : Dub Language : Russian Service kind : Complete Main Default : No Forced : No
[+] Скриншоты

Всего файлов в раздаче: 1 
Detektiv.Tabo.2023.D.WEB-DL.1080p.ELEKTRI4KA.UNIONGANG.mkv3.84 GB

Похожие раздачи по запросу - Детектив
Вчера magnet Загляни ему в голову / Серии: 1-6 из 16 [2022, детектив, триллер, WEBRip-AVC] от Aleksan55 2К3.95 GB ↑ 0 ↓ 0
Вчера magnet Тень Чикатило / Серии: 1-3 из 8 [2023, триллер, детектив, драма, WEBRip-AVC] от Aleksan55 2.00 GB ↑ 1 ↓ 0
2024-04-17 magnet Горячая точка / Сезон: 3 / Серии: 1-24 из 24 [2023, детектив, WEBRip-AVC] от Aleksan55 14.55 GB ↑ 0 ↓ 1
2024-04-15 magnet Остров проклятых / Shutter Island [2010, триллер, драма, детектив, BDRip] Dub 2.62 GB ↑ 0 ↓ 2
2024-04-15 magnet Детектив на все руки. Задача со звёздочкой [S03] (2023) WEB-DL 1080p от Files-x 6.64 GB ↑ 0 ↓ 0
2024-04-15 magnet Детектив на все руки. Задача со звёздочкой [S03] (2023) WEB-DLRip-AVC от Files-x 2.25 GB ↑ 0 ↓ 0
2024-04-14 magnet Детектив на все руки. Задача со звёздочкой [S03] (2023) WEB-DLRip от Files-x 2.24 GB ↑ 0 ↓ 0

Комментарии


Зарегистрируйтесь чтобы добавить комментарий
Торрент клиент
byTorrent - программа для загрузки торрент-файлов.

Скачать byTorrent.exe (1,5 МБ)

Скачать byTorrent.zip (0,6 МБ)

Поддержи torrent.by
российских рублей
(300 российских рублей это 4$)

Обратная связь rss

End game ©