↑↓torrent.by
Поиск
Логин:  Регистрация
Пароль:

Любовь без памяти / 30 il / Love Reset (2023) WEB-DL 1080p | D

download Скачать торрент-файл   magnet Магнитная ссылка Размер: 5.00 GB Добавлен: 2024-03-21 11:00
Пиры будут получены из сети DHT
Последний сидер был замечен 2024-04-04 23:23
Информация Название: Любовь без памяти Оригинальное название: 30 il / Love Reset Год выхода: 2023 Жанр: Комедия, мелодрама Режиссер: Нам Дэ-джун В ролях: Кан Ха-ныль, Чон Со-мин, Чо Мин-су, Ким Сон-ён, Хван Сэ-ин, Юн Гён-хо, Ом Джи-юн, Сон Хэ-на, Ли Сан-джин, Вон У Описание: Поженившись по большой любви, теперь Чон-ёль и На-ра друг друга на дух не переносят. Они подают заявление на развод (после чего по закону должно пройти 30 дней) и, продолжая ругаться за рулём, попадают в аварию, в результате которой обоим отшибает память. Страна: Корея Южная Студия: MindMark, th story, Woollim Cinema Продолжительность: 01:59:04 Перевод: Профессиональный (полное дублирование) | Leff Sound Файл Формат: MKV Качество: WEB-DL 1080p Видео: MPEG-4 AVC, 5120 Кбит/с, 1920x958 Аудио: Русский (AC3, 6 ch, 384 Кбит/с), (AAC, 6 ch, 512 Кбит/с) Субтитры: Русские (Full) отдельно)
[+] MediaInfo:General Unique ID : 147412672441654037920473064162887903872 (0x6EE6A5E392EE3578434F2DC13B66AA80) Complete name : Ljubov.bez.pamjati.2023.WEB-DL.1080p.ELEKTRI4KA.UNIONGANG.mkv Format : Matroska Format version : Version 4 File size : 5.00 GiB Duration : 1 h 59 min Overall bit rate : 6 010 kb/s Frame rate : 24.000 FPS Movie name : Ljubov bez pamjati (2023) ELEKTRI4KA.UNIONGANG Encoded date : 2024-03-21 01:16:18 UTC Writing application : mkvmerge v83.0 ('Circle Of Friends') 64-bit Writing library : libebml v1.4.5 + libmatroska v1.7.1 Video ID : 1 Format : AVC Format/Info : Advanced Video Codec Format profile : High@L4 Format settings : CABAC / 4 Ref Frames Format settings, CABAC : Yes Format settings, Reference frames : 4 frames Codec ID : V_MPEG4/ISO/AVC Duration : 1 h 59 min Bit rate : 5 120 kb/s Width : 1 920 pixels Height : 958 pixels Display aspect ratio : 2.004 Frame rate mode : Constant Frame rate : 24.000 FPS Color space : YUV Chroma subsampling : 4:2:0 Bit depth : 8 bits Scan type : Progressive Bits/(Pixel*Frame) : 0.116 Stream size : 4.25 GiB (85%) Title : Ljubov bez pamjati (2023) ELEKTRI4KA.UNIONGANG Writing library : x264 core 152 r2854 e9a5903 Encoding settings : cabac=1 / ref=3 / deblock=1:0:0 / analyse=0x3:0x113 / me=hex / subme=7 / psy=1 / psy_rd=1.00:0.00 / mixed_ref=1 / me_range=16 / chroma_me=1 / trellis=1 / 8x8dct=1 / cqm=0 / deadzone=21,11 / fast_pskip=1 / chroma_qp_offset=-2 / threads=30 / lookahead_threads=5 / sliced_threads=0 / nr=0 / decimate=1 / interlaced=0 / bluray_compat=0 / constrained_intra=0 / bframes=6 / b_pyramid=2 / b_adapt=1 / b_bias=0 / direct=1 / weightb=1 / open_gop=0 / weightp=2 / keyint=48 / keyint_min=25 / scenecut=0 / intra_refresh=0 / rc_lookahead=40 / rc=2pass / mbtree=1 / bitrate=5120 / ratetol=1.0 / qcomp=0.60 / qpmin=0 / qpmax=69 / qpstep=4 / cplxblur=20.0 / qblur=0.5 / vbv_maxrate=7680 / vbv_bufsize=20480 / nal_hrd=none / filler=0 / ip_ratio=1.40 / aq=1:1.00 Default : Yes Forced : No Audio #1 ID : 2 Format : AC-3 Format/Info : Audio Coding 3 Commercial name : Dolby Digital Codec ID : A_AC3 Duration : 1 h 59 min Bit rate mode : Constant Bit rate : 384 kb/s Channel(s) : 6 channels Channel layout : L R C LFE Ls Rs Sampling rate : 48.0 kHz Frame rate : 31.250 FPS (1536 SPF) Compression mode : Lossy Stream size : 327 MiB (6%) Title : Dub Language : Russian Service kind : Complete Main Default : Yes Forced : No Audio #2 ID : 3 Format : AAC LC Format/Info : Advanced Audio Codec Low Complexity Codec ID : A_AAC-2 Duration : 1 h 59 min Bit rate : 512 kb/s Channel(s) : 6 channels Channel layout : C L R Ls Rs LFE Sampling rate : 48.0 kHz Frame rate : 46.875 FPS (1024 SPF) Compression mode : Lossy Stream size : 436 MiB (9%) Title : Dub Language : Russian Default : No Forced : No Text ID : 4 Format : UTF-8 Codec ID : S_TEXT/UTF8 Codec ID/Info : UTF-8 Plain Text Duration : 1 h 54 min Bit rate : 99 b/s Frame rate : 0.281 FPS Count of elements : 1937 Stream size : 84.2 KiB (0%) Title : Full Language : Russian Default : No Forced : No
[+] Скриншоты

Всего файлов в раздаче: 1 
Ljubov.bez.pamjati.2023.WEB-DL.1080p.ELEKTRI4KA.UNIONGANG.mkv5.00 GB

Похожие раздачи по запросу - Любовь
2024-04-19 magnet Боб Марли: Одна любовь / Боб Марлі: One Love / Bob Marley: One Love (2024) WEB-DL 1080p | D | UKR 5.89 GB ↑ 0 ↓ 1
2024-04-18 magnet Боб Марли: Одна любовь / Bob Marley: One Love (2024) WEB-DL 720p от селезень | P | Red Head Sound 2.76 GB ↑ 0 ↓ 0
2024-04-17 magnet Нина. Расплата за любовь [01-08 из 08] (2001) WEBRip-AVC 4.48 GB ↑ 0 ↓ 0
2024-04-14 magnet Боб Марли: Одна любовь / Bob Marley: One Love (2024) WEB-DL 1080p от ExKinoRay | P | Red Head Sound 5.60 GB ↑ 0 ↓ 3
2024-04-14 magnet Боб Марли: Одна любовь / Bob Marley: One Love (2024) WEB-DLRip от New-Team | P | Red Head Sound 1.46 GB ↑ 0 ↓ 1
2024-04-13 magnet Любовь до последнего / Casi muerta / Expiration Date (2023) WEB-DL 1080p | P 4.12 GB ↑ 0 ↓ 1
2024-04-12 magnet Влад Сташевский - Любовь здесь больше не живёт (1994) MP3 80.82 MB ↑ 0 ↓ 0

Комментарии


Зарегистрируйтесь чтобы добавить комментарий
Торрент клиент
byTorrent - программа для загрузки торрент-файлов.

Скачать byTorrent.exe (1,5 МБ)

Скачать byTorrent.zip (0,6 МБ)

Поддержи torrent.by
российских рублей
(300 российских рублей это 4$)

Обратная связь rss

End game ©