↑↓torrent.by
Поиск
Логин:  Регистрация
Пароль:

Наследство [01-10 из 13] (2024) WEB-DL 1080p от ExKinoRay

download Скачать торрент-файл   magnet Магнитная ссылка Размер: 8.98 GB Добавлен: 2024-03-21 11:00
Пиры будут получены из сети DHT
Последний сидер был замечен 2024-03-21 11:00
Информация о фильме Название: Наследство Год выхода: 2024 Жанр: Комедия, криминал Режиссер: Аня Мирохина, Дмитрий Меняйло В ролях: Нонна Гришаева, Александр Робак, Глеб Калюжный, Маргарита Аброськина, Анна Немченко, Роман Фомин, Алёна Бабенко, Владислав Ценёв, Елена Алфёрова, Сергей Нечипоренко, Олег Верещагин, Дмитрий Блохин, Егор Дружинин, Сергей Стёпин, Олег Евтеев О фильме: Примерно 25 лет назад Виктор вынужден был бежать из страны, оставив жену и детей в Москве. Последние годы он провел в Италии, где у него сложилась неплохая жизнь, но события прошлого не давали Виктору спать спокойно. Однажды мужчина решает бросить все и вернуться в Россию. Здесь у него есть незаконченные дела: необходимо наказать врагов, наладить отношения с женой и заново познакомиться с детьми. Вот только родственники, мягко говоря, не ждали Виктора, и его возвращение сложно назвать желанным. На что готов пойти блудный отец, чтобы вернуть семью и обрести покой? Страна: Россия Студия: Legio Felix, ТНТ Перевод: Не требуется Премьера в Росcии: 18 марта 2024 года | Okko Цифровой релиз: 18 марта 2024 года | Okko Файл Формат: MKV Качество: WEB-DL 1080p Видео: MPEG-4 AVC, ~ 5000 Кбит/с, 1920x816, 25 кадр/с Аудио 1: AC3, 2 ch, 256 Кбит/с RUS Аудио 2: E-AC3, 2 ch, 256 Кбит/с Продолжительность: 10 х ~ 00:25:00 Язык: Русский Субтитры: нет Реклама: Отсутствует
[+] МИ General Unique ID : 193581152743225938948141827835594254684 (0x91A25FB6301ED888923D416BAD6BA95C) Complete name : G:Nasledstvo.S01.WEB-DL.1080p.ExKinoRayNasledstvo.S01.E01.WEB-DL.1080p.ExKinoRay.mkv Format : Matroska Format version : Version 4 File size : 939 MiB Duration : 23 min 51 s Overall bit rate : 5 502 kb/s Encoded date : UTC 2024-03-19 09:31:16 Writing application : mkvmerge v6.9.1 ('Blue Panther') 64bit built on Apr 18 2014 18:23:38 Writing library : libebml v1.3.0 + libmatroska v1.4.1 Video ID : 1 Format : AVC Format/Info : Advanced Video Codec Format profile : High@L4 Format settings : CABAC / 3 Ref Frames Format settings, CABAC : Yes Format settings, Reference frames : 3 frames Codec ID : V_MPEG4/ISO/AVC Duration : 23 min 51 s Bit rate : 5 000 kb/s Width : 1 920 pixels Height : 816 pixels Display aspect ratio : 2.35:1 Frame rate mode : Constant Frame rate : 25.000 FPS Color space : YUV Chroma subsampling : 4:2:0 Bit depth : 8 bits Scan type : Progressive Bits/(Pixel*Frame) : 0.128 Stream size : 833 MiB (89%) Writing library : x264 core 164 r3095 baee400 Encoding settings : cabac=1 / ref=4 / deblock=1:-1:-1 / analyse=0x3:0x133 / me=umh / subme=9 / psy=1 / psy_rd=0.40:1.00 / mixed_ref=1 / me_range=24 / chroma_me=1 / trellis=0 / 8x8dct=1 / cqm=0 / deadzone=21,11 / fast_pskip=1 / chroma_qp_offset=-2 / threads=3 / lookahead_threads=1 / sliced_threads=0 / nr=0 / decimate=1 / interlaced=0 / bluray_compat=0 / stitchable=1 / constrained_intra=0 / bframes=8 / b_pyramid=1 / b_adapt=0 / b_bias=0 / direct=3 / weightb=1 / open_gop=0 / weightp=2 / keyint=75 / keyint_min=38 / scenecut=0 / intra_refresh=0 / rc_lookahead=40 / rc=2pass / mbtree=1 / bitrate=5000 / ratetol=1.0 / qcomp=0.80 / qpmin=1 / qpmax=69 / qpstep=4 / cplxblur=20.0 / qblur=0.5 / vbv_maxrate=7500 / vbv_bufsize=10000 / nal_hrd=none / filler=0 / ip_ratio=1.40 / aq=1:1.00 Language : Russian Default : Yes Forced : No Color range : Limited Color primaries : BT.709 Transfer characteristics : BT.709 Matrix coefficients : BT.709 Audio #1 ID : 2 Format : AC-3 Format/Info : Audio Coding 3 Commercial name : Dolby Digital Codec ID : A_AC3 Duration : 23 min 51 s Bit rate mode : Constant Bit rate : 256 kb/s Channel(s) : 2 channels Channel layout : L R Sampling rate : 48.0 kHz Frame rate : 31.250 FPS (1536 SPF) Compression mode : Lossy Stream size : 43.7 MiB (5%) Language : Russian Service kind : Complete Main Default : Yes Forced : No Audio #2 ID : 3 Format : E-AC-3 Format/Info : Enhanced AC-3 Commercial name : Dolby Digital Plus Codec ID : A_EAC3 Duration : 23 min 51 s Bit rate mode : Constant Bit rate : 256 kb/s Channel(s) : 2 channels Channel layout : L R Sampling rate : 48.0 kHz Frame rate : 31.250 FPS (1536 SPF) Compression mode : Lossy Stream size : 43.7 MiB (5%) Language : Russian Service kind : Complete Main Default : No Forced : No
[+] Скриншоты
Релиз от:

Всего файлов в раздаче: 10 
Nasledstvo.S01.E01.WEB-DL.1080p.ExKinoRay.mkv939.15 MB
Nasledstvo.S01.E02.WEB-DL.1080p.ExKinoRay.mkv997.56 MB
Nasledstvo.S01.E03.WEB-DL.1080p.ExKinoRay.mkv892.56 MB
Nasledstvo.S01.E04.WEB-DL.1080p.ExKinoRay.mkv906.40 MB
Nasledstvo.S01.E05.WEB-DL.1080p.ExKinoRay.mkv909.38 MB
Nasledstvo.S01.E06.WEB-DL.1080p.ExKinoRay.mkv919.89 MB
Nasledstvo.S01.E07.WEB-DL.1080p.ExKinoRay.mkv914.15 MB
Nasledstvo.S01.E08.WEB-DL.1080p.ExKinoRay.mkv910.49 MB
Nasledstvo.S01.E09.WEB-DL.1080p.ExKinoRay.mkv923.31 MB
Nasledstvo.S01.E10.WEB-DL.1080p.ExKinoRay.mkv886.58 MB

Похожие раздачи по запросу - Наследство
2024-03-25 magnet Наследство [S01] (2024) WEB-DLRip-AVC от Generalfilm | КПК 1.34 GB ↑ 0 ↓ 0
2024-03-23 magnet Наследство [S01] (2024) WEB-DLRip-AVC от Files-x 3.79 GB ↑ 0 ↓ 0
2024-03-22 magnet Наследство [S01] (2024) WEB-DL 720p от ExKinoRay 7.28 GB ↑ 0 ↓ 0
2024-03-22 magnet Наследство [S01] (2024) WEB-DL 1080p от ExKinoRay 11.61 GB ↑ 0 ↓ 0
2024-03-22 magnet Наследство [S01] (2024) WEB-DL 1080p 11.07 GB ↑ 0 ↓ 0
2024-03-22 magnet Наследство [S01] (2024) HDTV 1080p от Files-x 14.74 GB ↑ 0 ↓ 0
2024-03-22 magnet Наследство [S01] (2024) WEB-DLRip 3.83 GB ↑ 1 ↓ 0

Комментарии

orurov
Нет какой-то искорки, недостаточно ярко что ли. А так, всё крепенько.


Зарегистрируйтесь чтобы добавить комментарий
Торрент клиент
byTorrent - программа для загрузки торрент-файлов.

Скачать byTorrent.exe (1,5 МБ)

Скачать byTorrent.zip (0,6 МБ)

Поддержи torrent.by
российских рублей
(300 российских рублей это 4$)

Обратная связь rss

End game ©