↑↓torrent.by
Поиск
Логин:  Регистрация
Пароль:

Преторианец [01-06 из 08] (2022) WEBRip 720p от ExKinoRay

download Скачать торрент-файл   magnet Магнитная ссылка Размер: 7.80 GB Добавлен: 2024-03-21 11:00
Пиры будут получены из сети DHT
Последний сидер был замечен 2024-03-29 18:40
Информация о фильме Название: Преторианец Год выхода: 2022 Жанр: Боевик, детектив Режиссер: Максим Бриус В ролях: Андрей Фролов, Валентин Кузнецов, Дарина Шарова, Александр Аверин, Данила Якушев, Ольга Филиппова, Анна Пожидаева, Наталья Круглова, Илья Алексеев, Евгений Терских, Андрей Полищук, Ирина Ракшина, Оксана Базилевич, Сергей Степанченко, Анна Цветкова (II), Денис Денисов, Дмитрий Петрухин, Валерия Орлова, Ярослав Шаров, Анастасия Шутова, Владимир Гененрайх О фильме: Неожиданные перемены в карьере приводят главного героя в родной Выборг, где буквально за несколько дней его жизнь кардинально меняется. Полевой ловит за руку оборотней в погонах, настигает неуловимого преступника и даже предотвращает международный скандал. При этом он становится героем не только сыска, но ещё и светской хроники, а весь его путь к торжеству справедливости сопровождает большое количество внимания со стороны женского пола. Полевой — из тех людей, которые меняют мир вокруг себя не только по долгу службы: встав перед выбором, он может пожертвовать буквой закона ради кодекса чести. Страна: Россия Студия: Кинокомпания "Триикс Медиа" по заказу НТВ Язык:Русский Премьера в Росcии: 18 марта 2024 года Цифровой релиз: 18 марта 2024 года Возраст: 16+ Файл Формат: MKV Качество: WEBRip 720p Видео: MPEG-4 AVC, ~ 3500 Кбит/с, 1280x720, 25 кадр/с Аудио : Русский AC3, 2 ch, 192 Кбит/с RUS Продолжительность: 6 x ~ 00:50:00 Субтитры: Русские (SDH) Реклама: Отсутствует
[+] МИ General Unique ID : 213383516379227373976306082752279074121 (0xA0882B9E3E18502EA8C1D43000D7D549) Complete name : G:Pretorianets.S01.2022.WEB-DLRip.720p.ExKinoRayPretorianets.S01.E01.2022.WEB-DLRip.720p.ExKinoRay.mkv Format : Matroska Format version : Version 4 File size : 1.30 GiB Duration : 50 min 25 s Overall bit rate : 3 693 kb/s Encoded date : UTC 2024-03-18 21:45:58 Writing application : mkvmerge v6.9.1 ('Blue Panther') 64bit built on Apr 18 2014 18:23:38 Writing library : libebml v1.3.0 + libmatroska v1.4.1 Video ID : 1 Format : AVC Format/Info : Advanced Video Codec Format profile : High@L4.1 Format settings : CABAC / 9 Ref Frames Format settings, CABAC : Yes Format settings, Reference frames : 9 frames Codec ID : V_MPEG4/ISO/AVC Duration : 50 min 25 s Bit rate : 3 500 kb/s Width : 1 280 pixels Height : 720 pixels Display aspect ratio : 16:9 Frame rate mode : Constant Frame rate : 25.000 FPS Color space : YUV Chroma subsampling : 4:2:0 Bit depth : 8 bits Scan type : Progressive Bits/(Pixel*Frame) : 0.152 Stream size : 1.21 GiB (93%) Writing library : x264 core 146 r2538 121396c Encoding settings : cabac=1 / ref=9 / deblock=1:-3:-3 / analyse=0x3:0x113 / me=umh / subme=11 / psy=1 / psy_rd=1.00:0.02 / mixed_ref=1 / me_range=32 / chroma_me=1 / trellis=2 / 8x8dct=1 / cqm=0 / deadzone=21,11 / fast_pskip=1 / chroma_qp_offset=-3 / threads=24 / lookahead_threads=10 / sliced_threads=0 / nr=0 / decimate=0 / interlaced=0 / bluray_compat=0 / constrained_intra=0 / bframes=10 / b_pyramid=2 / b_adapt=2 / b_bias=0 / direct=3 / weightb=1 / open_gop=0 / weightp=2 / keyint=250 / keyint_min=25 / scenecut=40 / intra_refresh=0 / rc_lookahead=60 / rc=2pass / mbtree=1 / bitrate=3500 / ratetol=1.0 / qcomp=0.60 / qpmin=0 / qpmax=69 / qpstep=4 / cplxblur=20.0 / qblur=0.5 / vbv_maxrate=14000 / vbv_bufsize=14000 / nal_hrd=none / filler=0 / ip_ratio=1.40 / aq=3:1.40 Language : Russian Default : Yes Forced : No Color range : Limited Color primaries : BT.709 Transfer characteristics : BT.709 Matrix coefficients : BT.709 Audio ID : 2 Format : AC-3 Format/Info : Audio Coding 3 Commercial name : Dolby Digital Codec ID : A_AC3 Duration : 50 min 25 s Bit rate mode : Constant Bit rate : 192 kb/s Channel(s) : 2 channels Channel layout : L R Sampling rate : 48.0 kHz Frame rate : 31.250 FPS (1536 SPF) Compression mode : Lossy Stream size : 69.3 MiB (5%) Language : Russian Service kind : Complete Main Default : Yes Forced : No Text ID : 3 Format : UTF-8 Codec ID : S_TEXT/UTF8 Codec ID/Info : UTF-8 Plain Text Language : Russian Default : No Forced : No
[+] Скриншоты
Релиз от:

Всего файлов в раздаче: 6 
Pretorianets.S01.E01.2022.WEB-DLRip.720p.ExKinoRay.mkv1.30 GB
Pretorianets.S01.E02.2022.WEB-DLRip.720p.ExKinoRay.mkv1.32 GB
Pretorianets.S01.E03.2022.WEB-DLRip.720p.ExKinoRay.mkv1.25 GB
Pretorianets.S01.E04.2022.WEB-DLRip.720p.ExKinoRay.mkv1.32 GB
Pretorianets.S01.E05.2022.WEB-DLRip.720p.ExKinoRay.mkv1.32 GB
Pretorianets.S01.E06.2022.WEB-DLRip.720p.ExKinoRay.mkv1.30 GB

Похожие раздачи по запросу - Преторианец
2024-04-01 magnet Преторианец [S01] (2022) WEBRip от Generalfilm | КПК 1.50 GB ↑ 0 ↓ 0
2024-03-29 magnet Преторианец [S01] (2022) WEBRip от Files-x 5.08 GB ↑ 0 ↓ 0
2024-03-22 magnet Преторианец [S01] (2022) WEBRip 1080p 17.48 GB ↑ 1 ↓ 0
2024-03-22 magnet Преторианец [S01] (2022) HDTV 1080p от Files-x 19.76 GB ↑ 0 ↓ 0
2024-03-22 magnet Преторианец [S01] (2022) WEBRip 720p от ExKinoRay 10.44 GB ↑ 0 ↓ 0
2024-03-22 magnet Преторианец [01х01-06 из 08] (2024) WEBRip-AVC от Files-x 5.07 GB ↑ 0 ↓ 0
2024-03-21 magnet Преторианец / Серии: 1-8 из 8 [2023, детектив, триллер, HDTVRip-AVC] от Aleksan55 5.03 GB ↑ 0 ↓ 0

Комментарии


Зарегистрируйтесь чтобы добавить комментарий
Торрент клиент
byTorrent - программа для загрузки торрент-файлов.

Скачать byTorrent.exe (1,5 МБ)

Скачать byTorrent.zip (0,6 МБ)

Поддержи torrent.by
российских рублей
(300 российских рублей это 4$)

Обратная связь rss

End game ©