↑↓torrent.by
Поиск
Логин:  Регистрация
Пароль:

Внутри убийцы [S01] (2024) WEBRip-HEVC 720p от ExKinoRay

download Скачать торрент-файл   magnet Магнитная ссылка Размер: 9.50 GB Добавлен: 2024-03-21 17:00
Пиры будут получены из сети DHT
Последний сидер был замечен 2024-03-27 21:50
Информация о фильме Название: Внутри убийцы Год выхода: 2024 Жанр: Детектив, триллер Режиссер: Владимир Мирзоев В ролях: Анастасия Евграфова, Тихон Жизневский, Яна Сексте, Сергей Шакуров, Дарья Коныжева, Сергей Гилёв, Вероника Мохирева, Анастасия Красовская, Диана Енакаева, Александр Резалин О фильме: Профайлер Зоя Волгина — лучшая в своем деле: сцены преступлений буквально оживают у нее перед глазами. Именно Зою и специального сотрудника Следственного комитета Тимофея Волоха привлекают к новому расследованию: в Петербурге неизвестный душитель бальзамирует тела своих жертв, превращая их в статуи. Его «почерк» Зое знаком — много лет назад она уже сталкивалась с очень похожим человеком. Страна: Россия Студия: Плюс Студия, Zoom Production Перевод: не требуется Файл Формат: MKV Качество: WEBRip-HEVC 720p Видео : MPEG-H HEVC, ~ 4786 Кбит/с, 1280x536, 25 кадр/с Аудио 1: Русский AC3, 6 ch, 448 Кбит/с RUS Аудио 2: Русский AC3, 6 ch, 448 Кбит/с | аудиодескрипция Аудио 3: Русский E-AC3, 6 ch, 448 Кбит/с Аудио 4: Русский E-AC3, 6 ch, 448 Кбит/с | аудиодескрипция Продолжительность: 5 x ~ 00:51:00 Язык: Русский Субтитры: Русские (full, SDH) Реклама: Отсутствует
[+] МИ General Unique ID : 230323975646768256534979397742772977177 (0xAD46C8BEC3D6651D87C9AD68D2657E19) Complete name : G:Vnutri.ubijci.S01.2024.WEB-DL.720p.ExKinoRayVnutri.ubijci.S01.E01.2024.WEB-DL.720p.ExKinoRay.mkv Format : Matroska Format version : Version 4 File size : 1.72 GiB Duration : 51 min 31 s Overall bit rate : 4 786 kb/s Encoded date : UTC 2024-02-21 22:15:47 Writing application : mkvmerge v6.9.1 ('Blue Panther') 64bit built on Apr 18 2014 18:23:38 Writing library : libebml v1.3.0 + libmatroska v1.4.1 Video ID : 1 Format : HEVC Format/Info : High Efficiency Video Coding Format profile : Main@L3.1@Main Codec ID : V_MPEGH/ISO/HEVC Duration : 51 min 31 s Bit rate : 2 899 kb/s Width : 1 280 pixels Height : 536 pixels Display aspect ratio : 2.40:1 Frame rate mode : Constant Frame rate : 25.000 FPS Color space : YUV Chroma subsampling : 4:2:0 Bit depth : 8 bits Bits/(Pixel*Frame) : 0.169 Stream size : 1.04 GiB (61%) Writing library : x265 3.5: 8bit+10bit Encoding settings : cpuid=1111039 / frame-threads=5 / wpp / no-pmode / no-pme / no-psnr / no-ssim / log-level=2 / input-csp=1 / input-res=1280x536 / interlace=0 / total-frames=0 / level-idc=31 / high-tier=0 / uhd-bd=0 / ref=2 / no-allow-non-conformance / no-repeat-headers / annexb / no-aud / no-hrd / info / hash=0 / no-temporal-layers / open-gop / min-keyint=100 / keyint=100 / gop-lookahead=0 / bframes=4 / b-adapt=2 / b-pyramid / bframe-bias=0 / rc-lookahead=25 / lookahead-slices=0 / scenecut=40 / hist-scenecut=0 / radl=0 / no-splice / no-intra-refresh / ctu=64 / min-cu-size=8 / rect / no-amp / max-tu-size=32 / tu-inter-depth=1 / tu-intra-depth=1 / limit-tu=0 / rdoq-level=2 / dynamic-rd=0.00 / no-ssim-rd / signhide / no-tskip / nr-intra=0 / nr-inter=0 / no-constrained-intra / strong-intra-smoothing / max-merge=3 / limit-refs=3 / limit-modes / me=3 / subme=3 / merange=57 / temporal-mvp / no-frame-dup / no-hme / weightp / no-weightb / no-analyze-src-pics / deblock=0:0 / sao / no-sao-non-deblock / rd=4 / selective-sao=4 / no-early-skip / rskip / no-fast-intra / no-tskip-fast / no-cu-lossless / no-b-intra / no-splitrd-skip / rdpenalty=0 / psy-rd=2.00 / psy-rdoq=1.00 / no-rd-refine / no-lossless / cbqpoffs=0 / crqpoffs=0 / rc=abr / bitrate=3000 / qcomp=0.60 / qpstep=4 / stats-write=0 / stats-read=2 / cplxblur=20.0 / qblur=0.5 / vbv-maxrate=4500 / vbv-bufsize=10000 / vbv-init=0.9 / min-vbv-fullness=50.0 / max-vbv-fullness=80.0 / ipratio=1.40 / pbratio=1.30 / aq-mode=2 / aq-strength=1.00 / cutree / zone-count=0 / no-strict-cbr / qg-size=32 / no-rc-grain / qpmax=69 / qpmin=0 / no-const-vbv / sar=1 / overscan=0 / videoformat=5 / range=0 / colorprim=2 / transfer=2 / colormatrix=2 / chromaloc=0 / display-window=0 / cll=0,0 / min-luma=0 / max-luma=255 / log2-max-poc-lsb=8 / vui-timing-info / vui-hrd-info / slices=1 / no-opt-qp-pps / no-opt-ref-list-length-pps / no-multi-pass-opt-rps / scenecut-bias=0.05 / hist-threshold=0.03 / no-opt-cu-delta-qp / no-aq-motion / no-hdr10 / no-hdr10-opt / no-dhdr10-opt / no-idr-recovery-sei / analysis-reuse-level=0 / analysis-save-reuse-level=0 / analysis-load-reuse-level=0 / scale-factor=0 / refine-intra=0 / refine-inter=0 / refine-mv=1 / refine-ctu-distortion=0 / no-limit-sao / ctu-info=0 / no-lowpass-dct / refine-analysis-type=0 / copy-pic=1 / max-ausize-factor=1.0 / no-dynamic-refine / no-single-sei / no-hevc-aq / no-svt / no-field / qp-adaptation-range=1.00 / scenecut-aware-qp=0conformance-window-offsets / right=0 / bottom=0 / decoder-max-rate=0 / no-vbv-live-multi-pass Language : Russian Default : Yes Forced : No Color range : Limited Audio #1 ID : 2 Format : AC-3 Format/Info : Audio Coding 3 Commercial name : Dolby Digital Codec ID : A_AC3 Duration : 51 min 31 s Bit rate mode : Constant Bit rate : 448 kb/s Channel(s) : 6 channels Channel layout : L R C LFE Ls Rs Sampling rate : 48.0 kHz Frame rate : 31.250 FPS (1536 SPF) Compression mode : Lossy Stream size : 165 MiB (9%) Language : Russian Service kind : Complete Main Default : Yes Forced : No Audio #2 ID : 3 Format : AC-3 Format/Info : Audio Coding 3 Commercial name : Dolby Digital Codec ID : A_AC3 Duration : 51 min 31 s Bit rate mode : Constant Bit rate : 448 kb/s Channel(s) : 6 channels Channel layout : L R C LFE Ls Rs Sampling rate : 48.0 kHz Frame rate : 31.250 FPS (1536 SPF) Compression mode : Lossy Stream size : 165 MiB (9%) Title : аудиодескрипция Language : Russian Service kind : Complete Main Default : No Forced : No Audio #3 ID : 4 Format : E-AC-3 Format/Info : Enhanced AC-3 Commercial name : Dolby Digital Plus Codec ID : A_EAC3 Duration : 51 min 31 s Bit rate mode : Constant Bit rate : 448 kb/s Channel(s) : 6 channels Channel layout : L R C LFE Ls Rs Sampling rate : 48.0 kHz Frame rate : 31.250 FPS (1536 SPF) Compression mode : Lossy Stream size : 165 MiB (9%) Language : Russian Service kind : Complete Main Default : No Forced : No Audio #4 ID : 5 Format : E-AC-3 Format/Info : Enhanced AC-3 Commercial name : Dolby Digital Plus Codec ID : A_EAC3 Duration : 51 min 31 s Bit rate mode : Constant Bit rate : 448 kb/s Channel(s) : 6 channels Channel layout : L R C LFE Ls Rs Sampling rate : 48.0 kHz Frame rate : 31.250 FPS (1536 SPF) Compression mode : Lossy Stream size : 165 MiB (9%) Title : аудиодескрипция Language : Russian Service kind : Complete Main Default : No Forced : No Text #1 ID : 6 Format : UTF-8 Codec ID : S_TEXT/UTF8 Codec ID/Info : UTF-8 Plain Text Language : Russian Default : No Forced : No Text #2 ID : 7 Format : UTF-8 Codec ID : S_TEXT/UTF8 Codec ID/Info : UTF-8 Plain Text Title : SDH Language : Russian Default : No Forced : No
[+] Скриншоты
Релиз от:

Всего файлов в раздаче: 5 
Vnutri.ubijci.S01.E01.2024.WEB-DL.720p.ExKinoRay.mkv1.72 GB
Vnutri.ubijci.S01.E02.2024.WEB-DL.720p.ExKinoRay.mkv1.74 GB
Vnutri.ubijci.S01.E03.2024.WEB-DL.720p.ExKinoRay.mkv2.19 GB
Vnutri.ubijci.S01.E04.2024.WEB-DL.720p.ExKinoRay.mkv2.26 GB
Vnutri.ubijci.S01.E05.2024.WEB-DL.720p.ExKinoRay.mkv1.57 GB

Похожие раздачи по запросу - Внутри
2024-04-17 magnet Паук внутри: История Паутины Вселенных / The Spider Within: A Spider-Verse Story (2024) UHD WEB-RIP 2160p | D | Flarrow Films 347.58 MB ↑ 0 ↓ 1
2024-04-16 magnet Демоны внутри / Лица Энн / Faces of Anne (2022) WEB-DLRip от New-Team | D 1.46 GB ↑ 0 ↓ 0
2024-04-13 magnet Тело человека. Снаружи и внутри №18 (2008) PDF 35.49 MB ↑ 0 ↓ 0
2024-04-12 magnet Тело человека. Снаружи и внутри №17 (2008) PDF 32.44 MB ↑ 0 ↓ 0
2024-03-24 magnet Внутри убийцы [S01] (2023) WEBRip от Generalfilm | КПК 1.11 GB ↑ 0 ↓ 0
2024-03-21 magnet Внутри убийцы [S01] (2023) WEBRip от Files-х 4.06 GB ↑ 3 ↓ 0
2024-03-21 magnet Внутри убийцы [S01] (2023) WEBRip-AVC от Files-х 5.19 GB ↑ 1 ↓ 0

Комментарии


Зарегистрируйтесь чтобы добавить комментарий
Торрент клиент
byTorrent - программа для загрузки торрент-файлов.

Скачать byTorrent.exe (1,5 МБ)

Скачать byTorrent.zip (0,6 МБ)

Поддержи torrent.by
российских рублей
(300 российских рублей это 4$)

Обратная связь rss

End game ©