↑↓torrent.by
Поиск
Логин:  Регистрация
Пароль:

Огонь на поражение / Shoot to Kill (1988) HDTVRip от New-Team | D

download Скачать торрент-файл   magnet Магнитная ссылка Размер: 1.46 GB Добавлен: 2024-03-22 05:00
Пиры будут получены из сети DHT
Последний сидер был замечен 2024-03-24 20:46
Страна: США Производство: Century Park Pictures, Silver Screen Partners III, Touchstone Pictures Жанр: боевик, триллер, драма, криминал, приключения Год выпуска: 1988 Продолжительность: 1:49:37 Перевод: Профессиональный (полное дублирование) Оригинальная аудиодорожка: английский Cубтитры: нет Режиссер: Роджер Споттисвуд / Roger Spottiswoode В ролях: Сидни Пуатье, Том Беренджер, Керсти Элли, Клэнси Браун, Ричард Мазур, Эндрю Робинсон, Кевин Скэннелл, Фредерик Коффин... Описание: Хозяин ювелирного магазина среди ночи в панике забирает бриллианты с неизвестной целью. Приехавшая на место «ограбления» полиция выясняет, что ювелир должен немедленно отдать драгоценности грабителю, захватившему его жену в заложники. Женщину спасти не удалось, да и преступнику удается уйти от агента ФБР Уоррена Стентина. Ниточка приводит его в леса в Северной Америке… Исходник: HDTVRip 1080p Тип релиза: HDTVRip Контейнер: AVI Видео: 720x400 (16:9), 23,976 кадра/сек, XviD 73 ~ 1510 кбит/сек, 0.219 бит/пиксель Аудио: 48 кГц, Dolby Digital AC3 2.0, 192 кбит/сек DUB Аудио: 48 кГц, Dolby Digital AC3 2.0, 192 кбит/сек английский Раздача от:
[+] MediaInfo Общее Полное имя : Огонь на поражение.1988.HDTVRip__by_AVP_Studio.avi Формат : AVI Формат/Информация : Audio Video Interleave Размер файла : 1,46 Гбайт Продолжительность : 1 ч. 49 м. Общий поток : 1908 Кбит/сек Программа кодирования : VirtualDubModRus 1.5.10.2 (build 2542/release) Библиотека кодирования : VirtualDubMod build 2542/release Видео Идентификатор : 0 Формат : MPEG-4 Visual Профиль формата : Advanced Simple@L5 Параметр BVOP формата : 1 Параметр QPel формата : Нет Параметр GMC формата : Без точки перехода Параметр матрицы формата : Выборочная Идентификатор кодека : XVID Идентификатор кодека/Подсказка : XviD Продолжительность : 1 ч. 49 м. Битрейт : 1510 Кбит/сек Ширина : 720 пикселей Высота : 400 пикселей Соотношение сторон : 16:9 Частота кадров : 23,976 кадра/сек Цветовое пространство : YUV Субдискретизация насыщенности : 4:2:0 Битовая глубина : 8 бит Тип развёртки : Прогрессивная Метод сжатия : С потерями Бит/(Пиксели*Кадры) : 0.219 Размер потока : 1,16 Гбайт (79%) Библиотека кодирования : XviD 73 Аудио #1 Идентификатор : 1 Формат : AC-3 Формат/Информация : Audio Coding 3 Расширение режима : CM (complete main) Параметр Endianness формата : Big Идентификатор кодека : 2000 Продолжительность : 1 ч. 49 м. Вид битрейта : Постоянный Битрейт : 192 Кбит/сек Каналы : 2 канала Расположение каналов : Front: L R Частота : 48,0 КГц Битовая глубина : 16 бит Метод сжатия : С потерями Размер потока : 151 Мбайт (10%) Выравнивание : Разделение по промежуткам Продолжительность промежутка : 42 мс. (1,00 видеокадр) Время предзагрузки промежутка : 500 мс. Аудио #2 Идентификатор : 2 Формат : AC-3 Формат/Информация : Audio Coding 3 Профиль формата : Dolby Digital Расширение режима : CM (complete main) Параметр Endianness формата : Big Идентификатор кодека : 2000 Продолжительность : 1 ч. 49 м. Вид битрейта : Постоянный Битрейт : 192 Кбит/сек Каналы : 2 канала Расположение каналов : Front: L R Частота : 48,0 КГц Битовая глубина : 16 бит Метод сжатия : С потерями Размер потока : 151 Мбайт (10%) Выравнивание : Разделение по промежуткам Продолжительность промежутка : 42 мс. (1,00 видеокадр) Время предзагрузки промежутка : 500 мс
[+] Скриншоты

Всего файлов в раздаче: 1 
Огонь на поражение.1988.HDTVRip_[New-team]_by_AVP_Studio.avi1.46 GB

Похожие раздачи по запросу - Огонь
2024-03-19 magnet Александра Торн - Консультант 1. Холодный огонь (2022) MP3 423.12 MB ↑ 0 ↓ 0
2024-03-05 magnet Твин Пикс: Сквозь огонь / Twin Peaks: Fire Walk with Me (1992) BDRip от HQCLUB 2.90 GB ↑ 0 ↓ 0

Комментарии


Зарегистрируйтесь чтобы добавить комментарий
Торрент клиент
byTorrent - программа для загрузки торрент-файлов.

Скачать byTorrent.exe (1,5 МБ)

Скачать byTorrent.zip (0,6 МБ)

Поддержи torrent.by
российских рублей
(300 российских рублей это 4$)

Обратная связь rss

End game ©