↑↓torrent.by
Поиск
Логин:  Регистрация
Пароль:

Идеальные друзья / The Trouble with Jessica (2023) WEB-DLRip-AVC от DoMiNo & селезень | D

download Скачать торрент-файл   magnet Магнитная ссылка Размер: 1.07 GB Добавлен: 2024-03-22 05:00
Пиры будут получены из сети DHT
Последний сидер был замечен 2024-04-06 17:19
Информация о фильме Название: Идеальные друзья Оригинальное название: The Trouble with Jessica Год выхода: 2023 Жанр: комедия Режиссер: Мэтт Уинн В ролях: Ширли Хендерсон, Руфус Сьюэлл, Оливия Уильямс, Алан Тьюдик, Индира Варма, Харрисон Эванс, Сильвестр Грот, Элис Хенли, Джонатан Ливингстоун, Эмили МакКормик О фильме: Решив продать свой шикарный дом в респектабельном районе Лондона, супруги Сара и Том устраивают прощальную вечеринку для пары лучших друзей. Изысканные напитки, легкие закуски и приятная беседа - прекрасный план на вечер, в который никак не входила незваная гостья. Модная писательница Джессика - давняя знакомая компании - подготовила убийственное развлечение, и теперь всех ждет полная сюрпризов ночь. Страна: Великобритания Студия: Bright Pictures, Relevate Ventures, Yes Repeat No Продолжительность: 01:29:13 Перевод: Дублированный | Пифагор Субтитры: Русские (Full) Файл Формат: Matroska Качество: WEB-DLRip-AVC Видео: 1024x428 at 24.000 fps, x264@L4.1, ~1324 kbps Аудио: AC3, 6 ch, ~384 kbps - | Русский | Формат субтитров: softsub (SRT) ***Рип от: -=DoMiNo=-
[+] M/IGeneral Unique ID : 134719722376568653250069045207578726673 (0x655A13225257E34C2555F43AECF45111) Complete name : I:The.Trouble.with.Jessica.2023.DUB.WEB-DLRip.x264.seleZen.mkv Format : Matroska Format version : Version 4 File size : 1.07 GiB Duration : 1 h 29 min Overall bit rate : 1 711 kb/s Frame rate : 24.000 FPS Movie name : The.Trouble.with.Jessica.2023.DUB.WEB-DLRip.x264.seleZen Encoded date : 2024-03-21 15:32:28 UTC Writing application : mkvmerge v83.0 ('Circle Of Friends') 64-bit Writing library : libebml v1.4.5 + libmatroska v1.7.1 Cover : Yes Attachments : cover.jpg / small_cover.jpg Video ID : 1 Format : AVC Format/Info : Advanced Video Codec Format profile : High@L4.1 Format settings : CABAC / 10 Ref Frames Format settings, CABAC : Yes Format settings, Reference : 10 frames Codec ID : V_MPEG4/ISO/AVC Duration : 1 h 29 min Bit rate : 1 324 kb/s Width : 1 024 pixels Height : 428 pixels Display aspect ratio : 2.40:1 Frame rate mode : Constant Frame rate : 24.000 FPS Color space : YUV Chroma subsampling : 4:2:0 Bit depth : 8 bits Scan type : Progressive Bits/(Pixel*Frame) : 0.126 Stream size : 845 MiB (77%) Title : -=DoMiNo=- Writing library : x264 core 164 r3190 7ed753b Encoding settings : cabac=1 / ref=10 / deblock=1:0:0 / analyse=0x3:0x133 / me=umh / subme=10 / psy=1 / psy_rd=1.00:0.00 / mixed_ref=1 / me_range=32 / chroma_me=1 / trellis=2 / 8x8dct=1 / cqm=0 / deadzone=21,11 / fast_pskip=0 / chroma_qp_offset=-2 / threads=13 / lookahead_threads=3 / sliced_threads=0 / nr=0 / decimate=0 / interlaced=0 / bluray_compat=0 / constrained_intra=0 / bframes=12 / b_pyramid=2 / b_adapt=2 / b_bias=0 / direct=1 / weightb=1 / open_gop=0 / weightp=2 / keyint=240 / keyint_min=24 / scenecut=40 / intra_refresh=0 / rc_lookahead=60 / rc=crf / mbtree=0 / crf=18.0 / qcomp=0.60 / qpmin=0 / qpmax=69 / qpstep=4 / vbv_maxrate=50000 / vbv_bufsize=62500 / crf_max=0.0 / nal_hrd=none / filler=0 / ip_ratio=1.40 / pb_ratio=1.30 / aq=3:1.00 Language : English Default : Yes Forced : No Color range : Limited Color primaries : BT.709 Transfer characteristics : BT.709 Matrix coefficients : BT.709 Audio ID : 2 Format : AC-3 Format/Info : Audio Coding 3 Commercial name : Dolby Digital Codec ID : A_AC3 Duration : 1 h 29 min Bit rate mode : Constant Bit rate : 384 kb/s Channel(s) : 6 channels Channel layout : L R C LFE Ls Rs Sampling rate : 48.0 kHz Frame rate : 31.250 FPS (1536 SPF) Compression mode : Lossy Stream size : 245 MiB (22%) Title : Дублированный | Пифагор Language : Russian Service kind : Complete Main Default : Yes Forced : No Text ID : 3 Format : UTF-8 Codec ID : S_TEXT/UTF8 Codec ID/Info : UTF-8 Plain Text Duration : 1 h 24 min Bit rate : 94 b/s Frame rate : 0.309 FPS Count of elements : 1564 Stream size : 58.3 KiB (0%) Language : Russian Default : No Forced : No Menu 00:00:00.000 : en:Chapter 01 00:05:50.000 : en:Chapter 02 00:11:40.000 : en:Chapter 03 00:17:30.000 : en:Chapter 04 00:23:20.000 : en:Chapter 05 00:29:10.000 : en:Chapter 06 00:35:00.000 : en:Chapter 07 00:40:50.000 : en:Chapter 08 00:46:40.000 : en:Chapter 09 00:52:30.000 : en:Chapter 10 00:58:20.000 : en:Chapter 11 01:04:10.000 : en:Chapter 12 01:10:00.000 : en:Chapter 13 01:15:50.000 : en:Chapter 14 01:21:40.000 : en:Chapter 15 01:27:30.000 : en:Chapter 16
Релиз: Присоединяйся к: Кликай на баннеры.

Всего файлов в раздаче: 1 
The.Trouble.with.Jessica.2023.DUB.WEB-DLRip.x264.seleZen.mkv1.07 GB

Похожие раздачи по запросу - Идеальные
2024-04-01 magnet Идеальные дни / Perfect Days (2023) BDRip от MegaPeer | D 1.46 GB ↑ 0 ↓ 1
2024-03-24 magnet Идеальные друзья / The Trouble with Jessica (2023) WEB-DLRip от toxics & селезень | D 1.46 GB ↑ 0 ↓ 0
2024-03-21 magnet Идеальные друзья / The Trouble with Jessica (2023) WEB-DLRip от MegaPeer | D 1.46 GB ↑ 0 ↓ 0
2024-03-21 magnet Идеальные друзья / The Trouble with Jessica (2023) WEB-DL 1080p от селезень | D 3.58 GB ↑ 0 ↓ 0
2024-03-11 magnet Идеальные дни / Perfect Days (2023) WEB-DLRip | A | Сербин 1.46 GB ↑ 0 ↓ 0
2024-03-08 magnet Идеальные дни / Perfect Days (2023) WEB-DL 1080p | D, A 9.42 GB ↑ 0 ↓ 0
2024-03-08 magnet Идеальные дни / Perfect Days (2023) WEB-DLRip-AVC от DoMiNo & селезень | D 2.00 GB ↑ 0 ↓ 0

Комментарии


Зарегистрируйтесь чтобы добавить комментарий
Торрент клиент
byTorrent - программа для загрузки торрент-файлов.

Скачать byTorrent.exe (1,5 МБ)

Скачать byTorrent.zip (0,6 МБ)

Поддержи torrent.by
российских рублей
(300 российских рублей это 4$)

Обратная связь rss

End game ©