↑↓torrent.by
Поиск
Логин:  Регистрация
Пароль:

Наследство [S01] (2024) WEB-DL 1080p

download Скачать торрент-файл   magnet Магнитная ссылка Размер: 11.07 GB Добавлен: 2024-03-22 05:00
Пиры будут получены из сети DHT
Последний сидер был замечен 2024-03-24 18:54
Информация о сериале Оригинальное название: Наследство Год выпуска: 2024 Жанр: Комедия, криминал Режиссер: Аня Мирохина, Дмитрий Меняйло В ролях: Нонна Гришаева, Александр Робак, Глеб Калюжный, Маргарита Аброськина, Анна Немченко, Роман Фомин, Алёна Бабенко, Владислав Ценёв, Елена Алфёрова, Сергей Нечипоренко, Олег Верещагин, Дмитрий Блохин, Егор Дружинин, Сергей Стёпин, Олег Евтеев О сериале: Примерно 25 лет назад Виктор вынужден был бежать из страны, оставив жену и детей в Москве. Последние годы он провел в Италии, где у него сложилась неплохая жизнь, но события прошлого не давали Виктору спать спокойно. Однажды мужчина решает бросить все и вернуться в Россию. Здесь у него есть незаконченные дела: необходимо наказать врагов, наладить отношения с женой и заново познакомиться с детьми. Вот только родственники, мягко говоря, не ждали Виктора, и его возвращение сложно назвать желанным. На что готов пойти блудный отец, чтобы вернуть семью и обрести покой? Автор релиза: MrMittens Без рекламы Выпущено: Россия, Legio Felix, ТНТ Продолжительность: 13 x ~ 00:25:00 Язык: Русский Файл Формат: MKV Качество: WEB-DL 1080p Видео: MPEG-4 AVC, ~ 5000 Кбит/с, 1920x816 Аудио: AC3, 2 ch, 256 Кбит/с Субтитры: Нет
[+] Скриншоты
[+] MIОбщее Уникальный идентификатор : 290106516113209992758662821701680760398 (0xDA407B8E95D5D5CD6C587ED39532064E) Полное имя : C:UsersAdminDesktopNasledstvo.S01.WEB-DL.1080p.MrMittensNasledstvo.S01.E01.WEB-DL.1080p.MrMittens.mkv Формат : Matroska Версия формата : Version 4 Размер файла : 895 Мбайт Продолжительность : 23 м. 51 с. Общий поток : 5 246 Кбит/сек Дата кодирования : UTC 2024-03-18 19:01:51 Программа кодирования : mkvmerge v43.0.0 ('The Quartermaster') 64-bit Библиотека кодирования : libebml v1.3.10 + libmatroska v1.5.2 Видео Идентификатор : 1 Формат : AVC Формат/Информация : Advanced Video Codec Профиль формата : High@L4 Настройки формата : CABAC / 3 Ref Frames Параметр CABAC формата : Да Параметр RefFrames формата : 3 кадра Идентификатор кодека : V_MPEG4/ISO/AVC Продолжительность : 23 м. 51 с. Битрейт : 5 000 Кбит/сек Ширина : 1 920 пикселей Высота : 816 пикселей Соотношение сторон : 2,35:1 Режим частоты кадров : Постоянный Частота кадров : 25,000 кадров/сек Цветовое пространство : YUV Субдискретизация насыщенности : 4:2:0 Битовая глубина : 8 бит Тип развёртки : Прогрессивная Бит/(Пиксели*Кадры) : 0.128 Размер потока : 851 Мбайт (95%) Библиотека кодирования : x264 core 164 r3095 baee400 Настройки программы : cabac=1 / ref=4 / deblock=1:-1:-1 / analyse=0x3:0x133 / me=umh / subme=9 / psy=1 / psy_rd=0.40:1.00 / mixed_ref=1 / me_range=24 / chroma_me=1 / trellis=0 / 8x8dct=1 / cqm=0 / deadzone=21,11 / fast_pskip=1 / chroma_qp_offset=-2 / threads=3 / lookahead_threads=1 / sliced_threads=0 / nr=0 / decimate=1 / interlaced=0 / bluray_compat=0 / stitchable=1 / constrained_intra=0 / bframes=8 / b_pyramid=1 / b_adapt=0 / b_bias=0 / direct=3 / weightb=1 / open_gop=0 / weightp=2 / keyint=75 / keyint_min=38 / scenecut=0 / intra_refresh=0 / rc_lookahead=40 / rc=2pass / mbtree=1 / bitrate=5000 / ratetol=1.0 / qcomp=0.80 / qpmin=1 / qpmax=69 / qpstep=4 / cplxblur=20.0 / qblur=0.5 / vbv_maxrate=7500 / vbv_bufsize=10000 / nal_hrd=none / filler=0 / ip_ratio=1.40 / aq=1:1.00 Язык : English Default : Да Forced : Нет Цветовой диапазон : Limited Основные цвета : BT.709 Характеристики трансфера : BT.709 Коэффициенты матрицы : BT.709 Аудио Идентификатор : 2 Формат : AC-3 Формат/Информация : Audio Coding 3 Коммерческое название : Dolby Digital Идентификатор кодека : A_AC3 Продолжительность : 23 м. 51 с. Вид битрейта : Постоянный Битрейт : 256 Кбит/сек Каналы : 2 канала Channel layout : L R Частота : 48,0 КГц Частота кадров : 31,250 кадров/сек (1536 SPF) Метод сжатия : С потерями Размер потока : 43,7 Мбайт (5%) Язык : Russian Service kind : Complete Main Default : Да Forced : Нет

Всего файлов в раздаче: 13 
Nasledstvo.S01.E01.WEB-DL.1080p.MrMittens.mkv895.40 MB
Nasledstvo.S01.E02.WEB-DL.1080p.MrMittens.mkv951.10 MB
Nasledstvo.S01.E03.WEB-DL.1080p.MrMittens.mkv850.93 MB
Nasledstvo.S01.E04.WEB-DL.1080p.MrMittens.mkv864.15 MB
Nasledstvo.S01.E05.WEB-DL.1080p.MrMittens.mkv866.95 MB
Nasledstvo.S01.E06.WEB-DL.1080p.MrMittens.mkv876.97 MB
Nasledstvo.S01.E07.WEB-DL.1080p.MrMittens.mkv871.48 MB
Nasledstvo.S01.E08.WEB-DL.1080p.MrMittens.mkv868.07 MB
Nasledstvo.S01.E09.WEB-DL.1080p.MrMittens.mkv880.27 MB
Nasledstvo.S01.E10.WEB-DL.1080p.MrMittens.mkv845.31 MB
Показать все файлы

Похожие раздачи по запросу - Наследство
2024-03-25 magnet Наследство [S01] (2024) WEB-DLRip-AVC от Generalfilm | КПК 1.34 GB ↑ 0 ↓ 0
2024-03-23 magnet Наследство [S01] (2024) WEB-DLRip-AVC от Files-x 3.79 GB ↑ 0 ↓ 0
2024-03-22 magnet Наследство [S01] (2024) WEB-DL 720p от ExKinoRay 7.28 GB ↑ 0 ↓ 0
2024-03-22 magnet Наследство [S01] (2024) WEB-DL 1080p от ExKinoRay 11.61 GB ↑ 0 ↓ 0
2024-03-22 magnet Наследство [S01] (2024) HDTV 1080p от Files-x 14.74 GB ↑ 0 ↓ 0
2024-03-22 magnet Наследство [S01] (2024) WEB-DLRip 3.83 GB ↑ 1 ↓ 0
2024-03-21 magnet Наследство [01х01-10 из 13] (2024) WEB-DLRip-AVC от Files-x 2.93 GB ↑ 0 ↓ 0

Комментарии


Зарегистрируйтесь чтобы добавить комментарий
Торрент клиент
byTorrent - программа для загрузки торрент-файлов.

Скачать byTorrent.exe (1,5 МБ)

Скачать byTorrent.zip (0,6 МБ)

Поддержи torrent.by
российских рублей
(300 российских рублей это 4$)

Обратная связь rss

End game ©