↑↓torrent.by
Поиск
Логин:  Регистрация
Пароль:

Наследство [S01] (2024) WEB-DLRip

download Скачать торрент-файл   magnet Магнитная ссылка Размер: 3.83 GB Добавлен: 2024-03-22 05:00
Пиры будут получены из сети DHT
Последний сидер был замечен сегодня в 17:23
Информация о сериале Оригинальное название: Наследство Год выпуска: 2024 Жанр: Комедия, криминал Режиссер: Аня Мирохина, Дмитрий Меняйло В ролях: Нонна Гришаева, Александр Робак, Глеб Калюжный, Маргарита Аброськина, Анна Немченко, Роман Фомин, Алёна Бабенко, Владислав Ценёв, Елена Алфёрова, Сергей Нечипоренко, Олег Верещагин, Дмитрий Блохин, Егор Дружинин, Сергей Стёпин, Олег Евтеев О сериале: Примерно 25 лет назад Виктор вынужден был бежать из страны, оставив жену и детей в Москве. Последние годы он провел в Италии, где у него сложилась неплохая жизнь, но события прошлого не давали Виктору спать спокойно. Однажды мужчина решает бросить все и вернуться в Россию. Здесь у него есть незаконченные дела: необходимо наказать врагов, наладить отношения с женой и заново познакомиться с детьми. Вот только родственники, мягко говоря, не ждали Виктора, и его возвращение сложно назвать желанным. На что готов пойти блудный отец, чтобы вернуть семью и обрести покой? Автор релиза: DenSBK Без рекламы Выпущено: Россия, Legio Felix, ТНТ Продолжительность: 13 x ~ 00:25:00 Язык: Русский Файл Формат: AVI Качество: WEB-DLRip Видео: XviD, ~ 1650 Кбит/с, 720x304 Аудио: AC3, 2 ch, 192 Кбит/с Субтитры: Нет
[+] Скриншоты
[+] MIОбщее Полное имя : C:UsersAdminDesktopNasledstvo.S01.2024.WEB-DLRip.DenSBKNasledstvo.S01.E01.2024.WEB-DLRip.DenSBK.avi Формат : AVI Формат/Информация : Audio Video Interleave Размер файла : 311 Мбайт Продолжительность : 23 м. 51 с. Общий поток : 1 821 Кбит/сек Программа кодирования : VirtualDubMod 1.5.10.3 | www.virtualdub-fr.org || (build 2550/release) Библиотека кодирования : VirtualDubMod build 2550/release Видео Идентификатор : 0 Формат : MPEG-4 Visual Профиль формата : Advanced Simple@L5 Настройки формата : BVOP2 / Custom Matrix Параметр BVOP формата : 2 Параметр QPel формата : Нет Параметр GMC формата : Без точки перехода Параметр матрицы формата : Выборочная Идентификатор кодека : XVID Идентификатор кодека/Подсказка : XviD Продолжительность : 23 м. 51 с. Битрейт : 1 619 Кбит/сек Ширина : 720 пикселей Высота : 304 пикселя Соотношение сторон : 2,35:1 Частота кадров : 25,000 кадров/сек Цветовое пространство : YUV Субдискретизация насыщенности : 4:2:0 Битовая глубина : 8 бит Тип развёртки : Прогрессивная Метод сжатия : С потерями Бит/(Пиксели*Кадры) : 0.296 Размер потока : 276 Мбайт (89%) Библиотека кодирования : XviD 73 Аудио Идентификатор : 1 Формат : AC-3 Формат/Информация : Audio Coding 3 Коммерческое название : Dolby Digital Идентификатор кодека : 2000 Продолжительность : 23 м. 51 с. Вид битрейта : Постоянный Битрейт : 192 Кбит/сек Каналы : 2 канала Channel layout : L R Частота : 48,0 КГц Частота кадров : 31,250 кадров/сек (1536 SPF) Метод сжатия : С потерями Размер потока : 32,8 Мбайт (11%) Выравнивание : Разделение по промежуткам Продолжительность промежутка : 40 мс. (1,00 видеокадр) Время предзагрузки промежутка : 500 мс. Service kind : Complete Main

Всего файлов в раздаче: 13 
Nasledstvo.S01.E01.2024.WEB-DLRip.DenSBK.avi310.74 MB
Nasledstvo.S01.E02.2024.WEB-DLRip.DenSBK.avi327.69 MB
Nasledstvo.S01.E03.2024.WEB-DLRip.DenSBK.avi294.54 MB
Nasledstvo.S01.E04.2024.WEB-DLRip.DenSBK.avi305.29 MB
Nasledstvo.S01.E05.2024.WEB-DLRip.DenSBK.avi306.46 MB
Nasledstvo.S01.E06.2024.WEB-DLRip.DenSBK.avi309.88 MB
Nasledstvo.S01.E07.2024.WEB-DLRip.DenSBK.avi308.26 MB
Nasledstvo.S01.E08.2024.WEB-DLRip.DenSBK.avi305.37 MB
Nasledstvo.S01.E09.2024.WEB-DLRip.DenSBK.avi310.56 MB
Nasledstvo.S01.E10.2024.WEB-DLRip.DenSBK.avi298.22 MB
Показать все файлы

Похожие раздачи по запросу - Наследство
2024-03-25 magnet Наследство [S01] (2024) WEB-DLRip-AVC от Generalfilm | КПК 1.34 GB ↑ 0 ↓ 0
2024-03-23 magnet Наследство [S01] (2024) WEB-DLRip-AVC от Files-x 3.79 GB ↑ 0 ↓ 0
2024-03-22 magnet Наследство [S01] (2024) WEB-DL 720p от ExKinoRay 7.28 GB ↑ 0 ↓ 0
2024-03-22 magnet Наследство [S01] (2024) WEB-DL 1080p от ExKinoRay 11.61 GB ↑ 0 ↓ 0
2024-03-22 magnet Наследство [S01] (2024) WEB-DL 1080p 11.07 GB ↑ 0 ↓ 0
2024-03-22 magnet Наследство [S01] (2024) HDTV 1080p от Files-x 14.74 GB ↑ 0 ↓ 0
2024-03-21 magnet Наследство [01х01-10 из 13] (2024) WEB-DLRip-AVC от Files-x 2.93 GB ↑ 0 ↓ 0

Комментарии


Зарегистрируйтесь чтобы добавить комментарий
Торрент клиент
byTorrent - программа для загрузки торрент-файлов.

Скачать byTorrent.exe (1,5 МБ)

Скачать byTorrent.zip (0,6 МБ)

Поддержи torrent.by
российских рублей
(300 российских рублей это 4$)

Обратная связь rss

End game ©