↑↓torrent.by
Поиск
Логин:  Регистрация
Пароль:

Powerwolf - The Metal Mass Live (2016) FLAC

download Скачать торрент-файл   magnet Магнитная ссылка Размер: 728.76 MB Добавлен: 2024-03-22 11:00
Пиры будут получены из сети DHT
Последний сидер был замечен 2024-03-22 11:00
Исполнитель: Powerwolf Название: The Metal Mass Live Издатель: Soyuz Music SZCD 9994-18 Источник: Диск из личной коллекции Год: 2016 Жанр: Heavy-Metal, Power-Metal, Melodic-Metal, Symphonic-Metal Страна: Германия Кодек: FLAC Битрейт аудио: Lossless Формат: image+.cue+.log Продолжительность: 01:19:38 Рок-Энциклопедия
[+] Трек-лист01. Blessed And Possessed 02. Coleus Sanctus 03. Amen And Attack 04. Cardinal Sin 05. Army Of The Night 06. Resurrection By Erection 07. Armata Strigoi 08. Dead Boys Don't Cry 09. Let There Be Night 10. Werewolves Of Armenia 11. In The Name Of God (Deus Vult) 12. We Drink Your Blood 13. Lupus Dei 14. Sanctified With Dynamite 15. Kreuzfeuer 16. All We Need Is Blood
[+] Отчёт ЕАСExact Audio Copy V1.6 from 23. October 2020 Отчёт EAC об извлечении, выполненном 22. февраля 2024, 16:16 POWERWOLF / "The Metal Mass Live" Дисковод: ASUS SBW-06C1S-U Adapter: 0 ID: 0 Режим чтения : Достоверность Использование точного потока : Да Отключение кэша аудио : Да Использование указателей C2 : Нет Коррекция смещения при чтении : 48 Способность читать области Lead-in и Lead-out : Нет Заполнение пропущенных сэмплов тишиной : Да Удаление блоков с тишиной в начале и конце : Нет При вычислениях CRC использовались нулевые сэмплы : Да Интерфейс : Установленный внешний ASPI-интерфейс Выходной формат : Пользовательский кодировщик Выбранный битрейт : 1024 kBit/s Качество : Высокий Добавление ID3-тега : Нет Утилита сжатия : C:Program Files (x86)Exact Audio CopyFlacflac.exe Дополнительные параметры : -8 -V -T "TITLE=%title%" -T "ARTIST=%artist%" -T "ALBUMARTIST=%albumartist%" -T "ALBUM=%albumtitle%" -T "DATE=%year%" -T "TRACKNUMBER=%tracknr%" -T "TRACKTOTAL=%numtracks%" -T "GENRE=%genre%" -T "COMMENT=%comment%" -T "PERFORMER=%albuminterpret%" -T "COMPOSER=%composer%" %source% -o %dest% TOC извлечённого CD Трек | Старт | Длительность | Начальный сектор | Конечный сектор --------------------------------------------------------------------- 1 | 0:00.00 | 7:34.64 | 0 | 34113 2 | 7:34.64 | 4:37.07 | 34114 | 54895 3 | 12:11.71 | 4:51.29 | 54896 | 76749 4 | 17:03.25 | 4:33.70 | 76750 | 97294 5 | 21:37.20 | 4:56.13 | 97295 | 119507 6 | 26:33.33 | 6:00.43 | 119508 | 146550 7 | 32:34.01 | 5:29.39 | 146551 | 171264 8 | 38:03.40 | 3:35.05 | 171265 | 187394 9 | 41:38.45 | 4:37.47 | 187395 | 208216 10 | 46:16.17 | 5:24.44 | 208217 | 232560 11 | 51:40.61 | 3:45.45 | 232561 | 249480 12 | 55:26.31 | 5:48.07 | 249481 | 275587 13 | 61:14.38 | 5:37.45 | 275588 | 300907 14 | 66:52.08 | 4:24.57 | 300908 | 320764 15 | 71:16.65 | 3:56.23 | 320765 | 338487 16 | 75:13.13 | 4:24.62 | 338488 | 358349 Характеристики диапазона извлечения и сообщения об ошибках Выбранный диапазон Имя файла D:RazdachiFilesPowerwolf Powerwolf - 2016 - The Metal Mass Live POWERWOLF - ''The Metal Mass Live''.wav Пиковый уровень 98.2 % Скорость извлечения 6.9 X Качество диапазона 100.0 % CRC теста 2A4D7D6F CRC копии 2A4D7D6F Копирование... OK Ошибок не произошло AccurateRip: сводка Трек 1 : извлечено точно (достоверность 24) (AR v2) Трек 2 : извлечено точно (достоверность 23) (AR v2) Трек 3 : извлечено точно (достоверность 24) (AR v2) Трек 4 : извлечено точно (достоверность 24) (AR v2) Трек 5 : извлечено точно (достоверность 24) (AR v2) Трек 6 : извлечено точно (достоверность 23) (AR v2) Трек 7 : извлечено точно (достоверность 24) (AR v2) Трек 8 : извлечено точно (достоверность 24) (AR v2) Трек 9 : извлечено точно (достоверность 24) (AR v2) Трек 10 : извлечено точно (достоверность 24) (AR v2) Трек 11 : извлечено точно (достоверность 24) (AR v2) Трек 12 : извлечено точно (достоверность 24) (AR v2) Трек 13 : извлечено точно (достоверность 23) (AR v2) Трек 14 : извлечено точно (достоверность 23) (AR v2) Трек 15 : извлечено точно (достоверность 24) (AR v2) Трек 16 : извлечено точно (достоверность 24) (AR v2) Все треки извлечены точно Конец отчёта ---- CUETools DB Plugin V2.1.6 found Submit result: jIHtHLjVvaDPuuitweKIUDjFDR8- has been confirmed Track | CTDB Status 1 | (172/172) Accurately ripped 2 | (171/172) Accurately ripped 3 | (172/172) Accurately ripped 4 | (172/172) Accurately ripped 5 | (172/172) Accurately ripped 6 | (171/172) Accurately ripped 7 | (172/172) Accurately ripped 8 | (172/172) Accurately ripped 9 | (172/172) Accurately ripped 10 | (172/172) Accurately ripped 11 | (172/172) Accurately ripped 12 | (172/172) Accurately ripped 13 | (171/172) Accurately ripped 14 | (171/172) Accurately ripped 15 | (172/172) Accurately ripped 16 | (170/172) Accurately ripped ==== Контрольная сумма отчёта 1A564CB53B08A9B2EF58DD328331B0CED46CBA27E89D89A4232C896672A92A23 ====
Дополнительная информация: Powerwolf — пауэр-хеви-метал-группа из Германии. Основана в 2003 году в городе Саарбрюккен. Творчество коллектива базируется на сочетании христианских мотивов с мрачными хоровыми вставками и органными партиями. Творчество группы отличается от традиционного пауэр-метала преобладанием тёмных образов, использованием корпспэйнта, элементов готической музыки и песнями об оборотнях Трансильвании и легендах о вампирах. Время раздачи: В дневное время.

Всего файлов в раздаче: 20 
POWERWOLF - ''The Metal Mass Live''.cue2.36 kB
POWERWOLF - ''The Metal Mass Live''.flac578.74 MB
POWERWOLF - ''The Metal Mass Live''.log10.00 kB
Scans\Scan 01.jpg5.49 MB
Scans\Scan 02.jpg9.41 MB
Scans\Scan 03.jpg10.67 MB
Scans\Scan 04.jpg10.73 MB
Scans\Scan 05.jpg9.23 MB
Scans\Scan 06.jpg11.07 MB
Scans\Scan 07.jpg9.72 MB
Показать все файлы

Похожие раздачи по запросу - Powerwolf
2024-03-24 magnet Powerwolf - The Sacrament Of Sin (2018) FLAC 456.49 MB ↑ 0 ↓ 0
2024-03-23 magnet Powerwolf - Metallum Nostrum (2019) FLAC 402.79 MB ↑ 0 ↓ 0
2024-03-22 magnet Powerwolf - Blessed And Possessed (2015) FLAC 990.09 MB ↑ 0 ↓ 0
2024-03-21 magnet Powerwolf - Preachers Of The Night (2013) FLAC 471.78 MB ↑ 0 ↓ 0
2024-03-20 magnet Powerwolf - Blood Of The Saints (2011) FLAC 429.62 MB ↑ 0 ↓ 0
2024-03-20 magnet Powerwolf - Bible Of The Beast (2009) FLAC 422.97 MB ↑ 0 ↓ 0
2024-03-19 magnet Powerwolf - Lupus Dei (2007) FLAC 390.34 MB ↑ 0 ↓ 0

Комментарии


Зарегистрируйтесь чтобы добавить комментарий
Торрент клиент
byTorrent - программа для загрузки торрент-файлов.

Скачать byTorrent.exe (1,5 МБ)

Скачать byTorrent.zip (0,6 МБ)

Поддержи torrent.by
российских рублей
(300 российских рублей это 4$)

Обратная связь rss

End game ©