↑↓torrent.by
Поиск
Логин:  Регистрация
Пароль:

Преторианец [S01] (2022) HDTV 1080p от Files-x

download Скачать торрент-файл   magnet Магнитная ссылка Размер: 19.76 GB Добавлен: 2024-03-22 11:00
Пиры будут получены из сети DHT
Последний сидер был замечен 2024-03-24 00:09
Информация о фильме Оригинальное название: Преторианец Год выхода: 2022 Жанр: Боевик, детектив Режиссер: Максим Бриус В ролях: Андрей Фролов, Валентин Кузнецов, Дарина Шарова, Александр Аверин, Данила Якушев, Ольга Филиппова, Анна Пожидаева, Наталья Круглова, Илья Алексеев, Евгений Терских, Андрей Полищук, Ирина Ракшина, Оксана Базилевич, Сергей Степанченко, Анна Цветкова (II), Денис Денисов, Дмитрий Петрухин, Валерия Орлова, Ярослав Шаров, Анастасия Шутова, Владимир Гененрайх О фильме: Неожиданные перемены в карьере приводят главного героя в родной Выборг, где буквально за несколько дней его жизнь кардинально меняется. Полевой ловит за руку оборотней в погонах, настигает неуловимого преступника и даже предотвращает международный скандал. При этом он становится героем не только сыска, но ещё и светской хроники, а весь его путь к торжеству справедливости сопровождает большое количество внимания со стороны женского пола. Полевой — из тех людей, которые меняют мир вокруг себя не только по долгу службы: встав перед выбором, он может пожертвовать буквой закона ради кодекса чести. Страна: Россия Студия: Кинокомпания "Триикс Медиа" по заказу НТВ Продолжительность: 8 x ~ 00:50:00 Перевод: Не требуется Файл Кодек: h.264 Качество: HDTV 1080p Видео: MPEG-4 AVC, ~ 6502 Кбит/с, 1920x1080, 25 кадр/с Звук: MP2, 2 ch, 192 Кбит/с
[+] Скриншоты
[+] MediaInfo General ID : 1 (0x1) Complete name : C:01.Преторианец.s01.E01.(2022).HDTV.(1080р).by.Nicodem.Files-x.ts Format : MPEG-TS File size : 2.46 GiB Duration : 49mn 58s Overall bit rate : 7 044 Kbps Maximum Overall bit rate : 35.5 Mbps Video ID : 4113 (0x1011) Menu ID : 1 (0x1) Format : AVC Format/Info : Advanced Video Codec Format profile : High@L4.1 Format settings, CABAC : No Format settings, ReFrames : 3 frames Codec ID : 27 Duration : 49mn 58s Bit rate mode : Variable Bit rate : 6 502 Kbps Maximum bit rate : 40.0 Mbps Width : 1 920 pixels Height : 1 080 pixels Display aspect ratio : 16:9 Frame rate : 25.000 fps Color space : YUV Chroma subsampling : 4:2:0 Bit depth : 8 bits Scan type : Progressive Bits/(Pixel*Frame) : 0.125 Stream size : 2.27 GiB (92%) Language : English Audio ID : 4352 (0x1100) Menu ID : 1 (0x1) Format : MPEG Audio Format version : Version 1 Format profile : Layer 2 Codec ID : 4 Duration : 49mn 58s Bit rate mode : Constant Bit rate : 192 Kbps Channel(s) : 2 channels Sampling rate : 48.0 KHz Compression mode : Lossy Stream size : 68.6 MiB (3%)
Релиз от:

Всего файлов в раздаче: 8 
01.Преторианец.s01.E01.(2022).HDTV.(1080р).by.Nicodem.Files-x.ts2.46 GB
02.Преторианец.s01.E02.(2022).HDTV.(1080р).by.Nicodem.Files-x.ts2.49 GB
03.Преторианец.s01.E03.(2022).HDTV.(1080р).by.Nicodem.Files-x.ts2.37 GB
04.Преторианец.s01.E04.(2022).HDTV.(1080р).by.Nicodem.Files-x.ts2.49 GB
05.Преторианец.s01.E05.(2022).HDTV.(1080р).by.Nicodem.Files-x.ts2.49 GB
06.Преторианец.s01.E06.(2022).HDTV.(1080р).by.Nicodem.Files-x.ts2.45 GB
07.Преторианец.s01.E07.(2022).HDTV.(1080р).by.Nicodem.Files-x.ts2.49 GB
08.Преторианец.s01.E08.(2022).HDTV.(1080р).by.Nicodem.Files-x.ts2.52 GB

Похожие раздачи по запросу - Преторианец
2024-04-01 magnet Преторианец [S01] (2022) WEBRip от Generalfilm | КПК 1.50 GB ↑ 0 ↓ 0
2024-03-29 magnet Преторианец [S01] (2022) WEBRip от Files-x 5.08 GB ↑ 0 ↓ 0
2024-03-22 magnet Преторианец [S01] (2022) WEBRip 1080p 17.48 GB ↑ 0 ↓ 0
2024-03-22 magnet Преторианец [S01] (2022) WEBRip 720p от ExKinoRay 10.44 GB ↑ 0 ↓ 0
2024-03-22 magnet Преторианец [01х01-06 из 08] (2024) WEBRip-AVC от Files-x 5.07 GB ↑ 0 ↓ 0
2024-03-21 magnet Преторианец / Серии: 1-8 из 8 [2023, детектив, триллер, HDTVRip-AVC] от Aleksan55 5.03 GB ↑ 0 ↓ 0
2024-03-21 magnet Преторианец [01-06 из 08] (2022) WEBRip 1080p 13.07 GB ↑ 1 ↓ 0

Комментарии


Зарегистрируйтесь чтобы добавить комментарий
Торрент клиент
byTorrent - программа для загрузки торрент-файлов.

Скачать byTorrent.exe (1,5 МБ)

Скачать byTorrent.zip (0,6 МБ)

Поддержи torrent.by
российских рублей
(300 российских рублей это 4$)

Обратная связь rss

End game ©