↑↓torrent.by
Поиск
Логин:  Регистрация
Пароль:

Правдивая ложь / True Lies (1994) ВDRip 1080p от ivandubskoj | D, P, P2, А

download Скачать торрент-файл   magnet Магнитная ссылка Размер: 22.18 GB Добавлен: 2024-03-22 17:00
Пиры будут получены из сети DHT
Последний сидер был замечен 2024-04-19 01:41
Информация о фильме Название: Правдивая ложь Оригинальное название: True Lies Год выпуска: 1994 Жанр: Боевик, триллер, комедия, ремейк, экранизация Режиссер: Джеймс Кэмерон / James Cameron В ролях: Арнольд Шварценеггер (Arnold Schwarzenegger), Джейми Ли Кёртис (Jamie Lee Curtis), Том Арнольд (Tom Arnold), Билл Пэкстон (Bill Paxton), Тиа Каррере (Tia Carrere), Арт Малик (Art Malik), Элиза Душку (Eliza Dushku), Грант Хеслов (Grant Heslov), Чарлтон Хестон (Charlton Heston), Маршалл Манеш (Marshall Manesh), Джеймс Аллен (James Allen), Дитер Раутер (Dieter Rauter), Джейн Моррис (Jane Morris), Кэтси Чаппель (Katsy Chappell), Кристина Уайлер (Crystina Wyler), Офер Самра (Ofer Samra), Пол Барселу (Paul Barselou), Чарльз А. Тамбурро (Charles A. Tamburro), Жан-Клод Парашини (Jean-Claude Parachini), Узи Гал (Uzi Gal) О фильме: Для своей семьи Гарри Таскер — любящий муж и отец, человек скромный и рассеянный, обыкновенный продавец компьютеров, «не вылезающий» с работы ни днем, ни ночью. Но лишь немногие знают, что на самом деле Гарри — специальный агент тайной правительственной службы, специализирующийся на особо опасных заданиях, владеющий кучей языков, всеми видами оружия и всеми возможными способами «отправки» злодеев на тот свет. Агент Таскер и дальше продолжал бы вести двойную жизнь, если бы зловещие арабские террористы не похитили Гарри, а вместе с ним и его ничего не подозревающую жену Хэлен. Но бандиты, к своему несчастью, даже не подозревали с кем связались. И Хэлен узнала, что муж ее совсем не компьютерщик, и что она пятнадцать лет прожила с человеком, рядом с которым мускулистый Рэмбо выглядит ребенком… Выпущено: США, 20th Century Fox Film, Lightstorm Entertainment Продолжительность: 02:20:48 Переводы: Дублированный (Ист-Вест, Мосфильм), профессиональный многоголосый (Lizard Cinema Trade), профессиональный многоголосый (FDV, Киномания, Супербит), профессиональный многоголосый (ТК Россия), профессиональный многоголосый (СТС), профессиональный многоголосый (TV Shows), профессиональный многоголосый (Jaskier), профессиональный многоголосый (Карусель), профессиональный двухголосый (Премьер Видео Фильм), профессиональный двухголосый (НТВ+), авторский одноголосый (Ю. Сербин), авторский одноголосый (А. Гаврилов), авторский одноголосый (Ю. Живов), авторский одноголосый (В. Горчаков), авторский одноголосый (Диктор CDV "Матрос"), авторский одноголосый (С. Охотников "Pr0peLLer"), авторский одноголосый (В. Завгородний), авторский одноголосый (М. Латышев "Е. Хрусталёв"), авторский одноголосый (А. Пронин), украинский профессиональный многоголосый (ТК Украина), украинский профессиональный многоголосый (Новый канал), украинский профессиональный двухголосый (ТК 2+2, 1+1) Оригинальная аудио-дорожка: Английская Файл Контейнер: MKV Качество: ВDRip 1080p Видео: MPEG-4 AVC, ~ 10.3 Кбит/с, 1920х800, 23.976 кадр/с Аудио 1: AC3, 6 ch, 640 kbps, Русский (DUB, Ист-Вест, Мосфильм) Аудио 2: AC3, 6 ch, 640 kbps, Русский (MVO, Lizard Cinema Trade) Аудио 3: AC3, 6 ch, 640 kbps, Русский (MVO, FDV, Киномания, Супербит) Аудио 4: AC3, 6 ch, 640 kbps, Русский (MVO, ТК Россия) Аудио 5: AC3, 6 ch, 640 kbps, Русский (MVO, СТС) Аудио 6: AC3, 6 ch, 640 kbps, Русский (MVO, TV Shows) Аудио 7: AC3, 6 ch, 640 kbps, Русский (MVO, Jaskier) Аудио 8: AC3, 6 ch, 640 kbps, Русский (MVO, Карусель) Аудио 9: AC3, 6 ch, 640 kbps, Русский (MVO, Премьер Видео Фильм) Аудио 10: AC3, 6 ch, 640 kbps, Русский (DVO, HTB+) Аудио 11: AC3, 6 ch, 640 kbps, Русский (AVO, Ю. Сербин) Аудио 12: AC3, 6 ch, 640 kbps, Русский (AVO, А. Гаврилов) Аудио 13: AC3, 6 ch, 640 kbps, Русский (AVO, Ю. Живов) Аудио 14: AC3, 6 ch, 640 kbps, Русский (AVO, В. Горчаков) Аудио 15: AC3, 6 ch, 640 kbps, Русский (AVO, Диктор CDV "Матрос") Аудио 16: AC3, 6 ch, 640 kbps, Русский (AVO, С. Охотников "Pr0peLLer") Аудио 17: AC3, 6 ch, 640 kbps, Русский (AVO, В. Завгородний) Аудио 18: AC3, 2 ch, 256 kbps, Русский (AVO, М. Латышев "Е. Хрусталёв") Аудио 19: AC3, 2 ch, 256 kbps, Русский (AVO, А. Пронин) Аудио 20: AC3, 2 ch, 192 kbps, Украинский (MVO, ТК Украина) Аудио 21: AC3, 2 ch, 192 kbps, Украинский (DVO, А. Новый канал) Аудио 22: AC3, 2 ch, 192 kbps, Украинский (DVO, 2+2, 1+1) Аудио 23: AC3, 6 ch, 640 kbps, Английский, Оригинал Субтитры: Русские, украинские, английские (Forced, Full, SDH) SRT Навигация по главам: Есть (с названием всех глав)
[+] MediaInfoGeneral Unique ID: 236466282474215603911584408745280885296 (0xB1E5BFDA5986EF93960AB262A8D55230) Complete name: True.Lies.1994.BDRip.1080p.by.ivandubskoj.mkv Format: Matroska File size: 22.2 GiB Duration: 2h 20mn Overall bit rate: 22.5 Mbps Movie name: True Lies (1994) BDRip 1080p by ivandubskoj Encoded date: UTC 2024-03-21 13:35:40 Writing application: mkvmerge v7.8.0 ('River Man') 32bit built on Apr 3 2015 12:11:22 Writing library: libebml v1.3.1 + libmatroska v1.4.2 Video ID: 1 Format: AVC Format/Info: Advanced Video Codec Format profile: High@L4.1 Format settings, CABAC: Yes Format settings, ReFrames: 4 frames Codec ID: V_MPEG4/ISO/AVC Duration: 2h 20mn Bit rate: 9 747 Kbps Nominal bit rate: 10.3 Mbps Width: 1 920 pixels Height: 800 pixels Display aspect ratio: 2.40:1 Frame rate: 23.976 fps Color space: YUV Chroma subsampling: 4:2:0 Bit depth: 8 bits Scan type: Progressive Bits/(Pixel*Frame): 0.265 Stream size: 9.59 GiB (43%) Title: True Lies (1994) BDRip 1080p by ivandubskoj Writing library: x264 core 148 r2638 7599210 Encoding settings: cabac=1 / ref=4 / deblock=1:0:0 / analyse=0x3:0x133 / me=umh / subme=11 / psy=1 / psy_rd=1.00:0.00 / mixed_ref=1 / me_range=32 / chroma_me=1 / trellis=1 / 8x8dct=1 / cqm=0 / deadzone=21,11 / fast_pskip=1 / chroma_qp_offset=-2 / threads=6 / lookahead_threads=1 / sliced_threads=0 / nr=0 / decimate=1 / interlaced=0 / bluray_compat=0 / constrained_intra=0 / bframes=5 / b_pyramid=2 / b_adapt=1 / b_bias=0 / direct=1 / weightb=0 / open_gop=0 / weightp=2 / keyint=240 / keyint_min=23 / scenecut=40 / intra_refresh=0 / rc_lookahead=60 / rc=abr / mbtree=1 / bitrate=10300 / ratetol=1.0 / qcomp=0.60 / qpmin=0 / qpmax=69 / qpstep=4 / ip_ratio=1.40 / aq=1:1.00 Language: English Audio #1 ID: 2 Format: AC-3 Format/Info: Audio Coding 3 Mode extension: CM (complete main) Codec ID: A_AC3 Duration: 2h 20mn Bit rate mode: Constant Bit rate: 640 Kbps Channel(s): 6 channels Channel positions: Front: L C R, Side: L R, LFE Sampling rate: 48.0 KHz Bit depth: 16 bits Compression mode: Lossy Stream size: 645 MiB (3%) Title: DUB Language: Russian Audio #2 ID: 3 Format: AC-3 Format/Info: Audio Coding 3 Mode extension: CM (complete main) Codec ID: A_AC3 Duration: 2h 20mn Bit rate mode: Constant Bit rate: 640 Kbps Channel(s): 6 channels Channel positions: Front: L C R, Side: L R, LFE Sampling rate: 48.0 KHz Bit depth: 16 bits Compression mode: Lossy Stream size: 645 MiB (3%) Title: MVO Language: Russian Audio #3 ID: 4 Format: AC-3 Format/Info: Audio Coding 3 Mode extension: CM (complete main) Codec ID: A_AC3 Duration: 2h 20mn Bit rate mode: Constant Bit rate: 640 Kbps Channel(s): 6 channels Channel positions: Front: L C R, Side: L R, LFE Sampling rate: 48.0 KHz Bit depth: 16 bits Compression mode: Lossy Stream size: 645 MiB (3%) Title: MVO Language: Russian Audio #4 ID: 5 Format: AC-3 Format/Info: Audio Coding 3 Mode extension: CM (complete main) Codec ID: A_AC3 Duration: 2h 20mn Bit rate mode: Constant Bit rate: 640 Kbps Channel(s): 6 channels Channel positions: Front: L C R, Side: L R, LFE Sampling rate: 48.0 KHz Bit depth: 16 bits Compression mode: Lossy Stream size: 645 MiB (3%) Title: MVO Language: Russian Audio #5 ID: 6 Format: AC-3 Format/Info: Audio Coding 3 Mode extension: CM (complete main) Codec ID: A_AC3 Duration: 2h 20mn Bit rate mode: Constant Bit rate: 640 Kbps Channel(s): 6 channels Channel positions: Front: L C R, Side: L R, LFE Sampling rate: 48.0 KHz Bit depth: 16 bits Compression mode: Lossy Stream size: 645 MiB (3%) Title: MVO Language: Russian Audio #6 ID: 7 Format: AC-3 Format/Info: Audio Coding 3 Mode extension: CM (complete main) Codec ID: A_AC3 Duration: 2h 20mn Bit rate mode: Constant Bit rate: 640 Kbps Channel(s): 6 channels Channel positions: Front: L C R, Side: L R, LFE Sampling rate: 48.0 KHz Bit depth: 16 bits Compression mode: Lossy Stream size: 645 MiB (3%) Title: MVO Language: Russian Audio #7 ID: 8 Format: AC-3 Format/Info: Audio Coding 3 Mode extension: CM (complete main) Codec ID: A_AC3 Duration: 2h 20mn Bit rate mode: Constant Bit rate: 640 Kbps Channel(s): 6 channels Channel positions: Front: L C R, Side: L R, LFE Sampling rate: 48.0 KHz Bit depth: 16 bits Compression mode: Lossy Stream size: 645 MiB (3%) Title: MVO Language: Russian Audio #8 ID: 9 Format: AC-3 Format/Info: Audio Coding 3 Mode extension: CM (complete main) Codec ID: A_AC3 Duration: 2h 20mn Bit rate mode: Constant Bit rate: 384 Kbps Channel(s): 6 channels Channel positions: Front: L C R, Side: L R, LFE Sampling rate: 48.0 KHz Bit depth: 16 bits Compression mode: Lossy Stream size: 387 MiB (2%) Title: MVO Language: Russian Audio #9 ID: 10 Format: AC-3 Format/Info: Audio Coding 3 Mode extension: CM (complete main) Codec ID: A_AC3 Duration: 2h 20mn Bit rate mode: Constant Bit rate: 640 Kbps Channel(s): 6 channels Channel positions: Front: L C R, Side: L R, LFE Sampling rate: 48.0 KHz Bit depth: 16 bits Compression mode: Lossy Stream size: 645 MiB (3%) Title: DVO Language: Russian Audio #10 ID: 11 Format: AC-3 Format/Info: Audio Coding 3 Mode extension: CM (complete main) Codec ID: A_AC3 Duration: 2h 20mn Bit rate mode: Constant Bit rate: 640 Kbps Channel(s): 6 channels Channel positions: Front: L C R, Side: L R, LFE Sampling rate: 48.0 KHz Bit depth: 16 bits Compression mode: Lossy Stream size: 645 MiB (3%) Title: DVO Language: Russian Audio #11 ID: 12 Format: AC-3 Format/Info: Audio Coding 3 Mode extension: CM (complete main) Codec ID: A_AC3 Duration: 2h 20mn Bit rate mode: Constant Bit rate: 640 Kbps Channel(s): 6 channels Channel positions: Front: L C R, Side: L R, LFE Sampling rate: 48.0 KHz Bit depth: 16 bits Compression mode: Lossy Stream size: 645 MiB (3%) Title: AVO Language: Russian Audio #12 ID: 13 Format: AC-3 Format/Info: Audio Coding 3 Mode extension: CM (complete main) Codec ID: A_AC3 Duration: 2h 20mn Bit rate mode: Constant Bit rate: 640 Kbps Channel(s): 6 channels Channel positions: Front: L C R, Side: L R, LFE Sampling rate: 48.0 KHz Bit depth: 16 bits Compression mode: Lossy Stream size: 645 MiB (3%) Title: AVO Language: Russian Audio #13 ID: 14 Format: AC-3 Format/Info: Audio Coding 3 Mode extension: CM (complete main) Codec ID: A_AC3 Duration: 2h 20mn Bit rate mode: Constant Bit rate: 640 Kbps Channel(s): 6 channels Channel positions: Front: L C R, Side: L R, LFE Sampling rate: 48.0 KHz Bit depth: 16 bits Compression mode: Lossy Stream size: 645 MiB (3%) Title: AVO Language: Russian Audio #14 ID: 15 Format: AC-3 Format/Info: Audio Coding 3 Mode extension: CM (complete main) Codec ID: A_AC3 Duration: 2h 20mn Bit rate mode: Constant Bit rate: 640 Kbps Channel(s): 6 channels Channel positions: Front: L C R, Side: L R, LFE Sampling rate: 48.0 KHz Bit depth: 16 bits Compression mode: Lossy Stream size: 645 MiB (3%) Title: AVO Language: Russian Audio #15 ID: 16 Format: AC-3 Format/Info: Audio Coding 3 Mode extension: CM (complete main) Codec ID: A_AC3 Duration: 2h 20mn Bit rate mode: Constant Bit rate: 640 Kbps Channel(s): 6 channels Channel positions: Front: L C R, Side: L R, LFE Sampling rate: 48.0 KHz Bit depth: 16 bits Compression mode: Lossy Stream size: 645 MiB (3%) Title: AVO Language: Russian Audio #16 ID: 17 Format: AC-3 Format/Info: Audio Coding 3 Mode extension: CM (complete main) Codec ID: A_AC3 Duration: 2h 20mn Bit rate mode: Constant Bit rate: 640 Kbps Channel(s): 6 channels Channel positions: Front: L C R, Side: L R, LFE Sampling rate: 48.0 KHz Bit depth: 16 bits Compression mode: Lossy Stream size: 645 MiB (3%) Title: AVO Language: Russian Audio #17 ID: 18 Format: AC-3 Format/Info: Audio Coding 3 Mode extension: CM (complete main) Codec ID: A_AC3 Duration: 2h 20mn Bit rate mode: Constant Bit rate: 640 Kbps Channel(s): 6 channels Channel positions: Front: L C R, Side: L R, LFE Sampling rate: 48.0 KHz Bit depth: 16 bits Compression mode: Lossy Stream size: 645 MiB (3%) Title: AVO Language: Russian Audio #18 ID: 19 Format: AC-3 Format/Info: Audio Coding 3 Mode extension: CM (complete main) Codec ID: A_AC3 Duration: 2h 20mn Bit rate mode: Constant Bit rate: 256 Kbps Channel(s): 2 channels Channel positions: Front: L R Sampling rate: 48.0 KHz Bit depth: 16 bits Compression mode: Lossy Stream size: 258 MiB (1%) Title: AVO Language: Russian Audio #19 ID: 20 Format: AC-3 Format/Info: Audio Coding 3 Mode extension: CM (complete main) Codec ID: A_AC3 Duration: 2h 20mn Bit rate mode: Constant Bit rate: 256 Kbps Channel(s): 2 channels Channel positions: Front: L R Sampling rate: 48.0 KHz Bit depth: 16 bits Compression mode: Lossy Stream size: 258 MiB (1%) Title: AVO Language: Russian Audio #20 ID: 21 Format: AC-3 Format/Info: Audio Coding 3 Mode extension: CM (complete main) Codec ID: A_AC3 Duration: 2h 20mn Bit rate mode: Constant Bit rate: 192 Kbps Channel(s): 2 channels Channel positions: Front: L R Sampling rate: 48.0 KHz Bit depth: 16 bits Compression mode: Lossy Stream size: 193 MiB (1%) Title: MVO Language: Ukrainian Audio #21 ID: 22 Format: AC-3 Format/Info: Audio Coding 3 Mode extension: CM (complete main) Codec ID: A_AC3 Duration: 2h 20mn Bit rate mode: Constant Bit rate: 192 Kbps Channel(s): 2 channels Channel positions: Front: L R Sampling rate: 48.0 KHz Bit depth: 16 bits Compression mode: Lossy Stream size: 193 MiB (1%) Title: MVO Language: Ukrainian Audio #22 ID: 23 Format: AC-3 Format/Info: Audio Coding 3 Mode extension: CM (complete main) Codec ID: A_AC3 Duration: 2h 20mn Bit rate mode: Constant Bit rate: 192 Kbps Channel(s): 2 channels Channel positions: Front: L R Sampling rate: 48.0 KHz Bit depth: 16 bits Compression mode: Lossy Stream size: 193 MiB (1%) Title: DVO Language: Ukrainian Audio #23 ID: 24 Format: AC-3 Format/Info: Audio Coding 3 Mode extension: CM (complete main) Codec ID: A_AC3 Duration: 2h 20mn Bit rate mode: Constant Bit rate: 640 Kbps Channel(s): 6 channels Channel positions: Front: L C R, Side: L R, LFE Sampling rate: 48.0 KHz Bit depth: 16 bits Compression mode: Lossy Stream size: 645 MiB (3%) Title: Original Language: English Text #1 ID: 25 Format: UTF-8 Codec ID: S_TEXT/UTF8 Codec ID/Info: UTF-8 Plain Text Title: Full Language: Russian Text #2 ID: 26 Format: UTF-8 Codec ID: S_TEXT/UTF8 Codec ID/Info: UTF-8 Plain Text Title: Full Language: Russian Text #3 ID: 27 Format: UTF-8 Codec ID: S_TEXT/UTF8 Codec ID/Info: UTF-8 Plain Text Title: Full SDH Language: Russian Text #4 ID: 28 Format: UTF-8 Codec ID: S_TEXT/UTF8 Codec ID/Info: UTF-8 Plain Text Title: Full Language: Ukrainian Text #5 ID: 29 Format: UTF-8 Codec ID: S_TEXT/UTF8 Codec ID/Info: UTF-8 Plain Text Title: Forced Language: English Text #6 ID: 30 Format: UTF-8 Codec ID: S_TEXT/UTF8 Codec ID/Info: UTF-8 Plain Text Title: Full Language: English Text #7 ID: 31 Format: UTF-8 Codec ID: S_TEXT/UTF8 Codec ID/Info: UTF-8 Plain Text Title: Full SDH Language: English Menu 00:00:00.000: en:Main Titles 00:01:13.782: en:Lake Chapeau 00:09:02.625: en:Tango 00:11:23.850: en:Here's My Invitation 00:14:29.786: en:That's it for Mr. Renquist 00:16:17.393: en:The Tasker Family 00:18:59.764: en:Not Just a River in Egypt 00:20:26.934: en:Omega Sector/You Know Harry 00:23:30.117: en:The Renquist Front 00:27:10.462: en:The Problem with Terrorists 00:29:35.399: en:Bathroom Fight 00:32:02.170: en:My Horse is Getting Tired 00:40:47.820: en:A Great Birthday 00:42:38.389: en:Welcome to the Club 00:45:51.832: en:A Little Excitement 00:50:07.213: en:Simon's "Op" 00:52:38.864: en:One Born Every Minute 00:56:44.192: en:Seek Help, Harry 00:58:51.403: en:A Misappropriation of Sector Resources 01:00:20.659: en:Safe House 01:05:01.314: en:Helen in the Looking Glass 01:13:14.682: en:The End of Carlos the Jackal 01:15:09.296: en:An Envelope Marked Doris 01:19:10.955: en:The Suite at the Marquis 01:27:11.017: en:Tasker, Not Renquist 01:29:00.168: en:The Four Horsemen 01:35:02.572: en:Truth Agent 01:40:22.808: en:I Married Rambo 01:42:17.048: en:Uh-Oh 01:44:22.715: en:Just Us 01:50:21.698: en:I Thought This Looked Like Your Work 01:51:27.055: en:Bright Boy Alert 01:53:52.451: en:Time to Kick Ass 01:55:15.408: en:Limo Rescue 01:59:42.634: en:Nuclear Kiss 02:01:02.630: en:Borrowing a Harrier 02:03:26.316: en:Dana the Hostage/A Man Inside 02:04:41.599: en:Who's Taken the Key? 02:06:33.961: en:On the Crane 02:07:27.640: en:A Crimson Jihad 02:08:11.601: en:Dad?! 02:11:18.162: en:Fired 02:14:03.994: en:Boris and Doris 02:16:45.656: en:End Titles
[+] Скриншоты
Релиз от: ivandubskoj

Всего файлов в раздаче: 1 
True.Lies.1994.BDRip.1080p.by.ivandubskoj.mkv22.18 GB

Похожие раздачи по запросу - Правдивая
2024-04-15 magnet Сантьяго Постегильо - Рим - это я. Правдивая история Юлия Цезаря (2024) FB2 6.50 MB ↑ 0 ↓ 0
2024-04-10 magnet Правдивая ложь / True Lies (1994) BDRip-HEVC 1080p от RIPS CLUB | D, P, P2, A, L1 | Remastered | CAN Transfer 23.88 GB ↑ 0 ↓ 0
2024-04-06 magnet Правдивая ложь / True Lies (1994) UHD BDRip 2160p | 4K | HDR | Dolby Vision Profile 8 | D, P, P2, A, L1 50.92 GB ↑ 0 ↓ 0
2024-03-31 magnet Правдивая ложь / True Lies (1994) ВDRip 1080p от ivandubskoj | D, P, P2, А 29.24 GB ↑ 0 ↓ 0
2024-03-25 magnet Правдивая ложь / True Lies (1994) UHD BDRemux 2160p | 4K | HDR | Dolby Vision | D, P, P2, А 97.08 GB ↑ 0 ↓ 0

Комментарии


Зарегистрируйтесь чтобы добавить комментарий
Торрент клиент
byTorrent - программа для загрузки торрент-файлов.

Скачать byTorrent.exe (1,5 МБ)

Скачать byTorrent.zip (0,6 МБ)

Поддержи torrent.by
российских рублей
(300 российских рублей это 4$)

Обратная связь rss

End game ©