↑↓torrent.by
Поиск
Логин:  Регистрация
Пароль:

Безумная Хайди / Mad Heidi (2022) BDRip 720p от DoMiNo & селезень | GoLTFilm

download Скачать торрент-файл   magnet Магнитная ссылка Размер: 5.76 GB Добавлен: 2024-03-22 17:00
Пиры будут получены из сети DHT
Последний сидер был замечен 2024-03-29 01:23
Информация о фильме Название: Безумная Хайди Оригинальное название: Mad Heidi Год выхода: 2022 Жанр: Боевик, приключения, комедия, фантастика, ужасы Режиссер: Йоханнес Хартманн, Сандро Клопфштейн В ролях: Алмар Дж. Сато, Вернер Биермейер, Джулия Фори, Дитер Фредли, Доминик Янн, Дэвид Скофилд, Жаклин Фукс, Каспар Вайсс, Каспер Ван Дин, Катиа Колм, Кел Матсена, Леон Херберт, Лукас Ритцель, Макс Рюдлингер, Маттиас Кох, Мило Муаре, Паскаль Улли, Паскаль Хольцер, Ребекка Дайсон-Смит, Филипп Шулер, Элис Люси О фильме: Действие происходит в дистопической Швейцарии, которая пала под натиском фашистской тирании. Хайди живет простой и тихой жизнью в Альпах, а ее дедушка Альпони всеми силами старается защитить внучку — но та переходит дорогу диктатору и становится опасной боевой оторвой, собирающейся освободить свою страну. Страна: Швейцария Студия: A Film Company, Swissploitation Films Продолжительность: 01:33:09 Перевод: Любительский (многоголосый, закадровый) | GoLTFilm 18 + Субтитры: Английские Файл Формат: Matroska Качество: BDRip 720p Видео: 1280x536 at 23.976 fps, x264@L4.1, ~8018 kbps Аудио 1: AC3, 2 ch, ~192 kbps - | Русский | Аудио 2: AC3, 6 ch, ~640 kbps - | Английский | Формат субтитров: softsub (SRT) ***Рип от: -=DoMiNo=-
[+] M/Ix264 : frame I:1211 Avg QP:16.96 size:121865 x264 : frame P:26756 Avg QP:18.35 size: 64434 x264 : frame B:106179 Avg QP:20.13 size: 35136 x264 : consecutive B-frames: 2.0% 1.8% 5.7% 18.6% 13.8% 30.7% 11.7% 10.0% 2.0% 1.3% 1.5% 0.7% General Unique ID : 36278586262791076981734085530476031762 (0x1B4B006663F560CACBCDF9F97F7B2F12) Complete name : H:Mad.Heidi.2022.BDRip.720p.x264.seleZen.mkv Format : Matroska Format version : Version 4 File size : 5.76 GiB Duration : 1 h 33 min Overall bit rate : 8 853 kb/s Movie name : Mad.Heidi.2022.BDRip.720p.x264.seleZen Encoded date : UTC 2023-02-25 08:56:15 Writing application : mkvmerge v74.0.0 ('You Oughta Know') 64-bit Writing library : libebml v1.4.4 + libmatroska v1.7.1 Cover : Yes Attachments : cover.jpg / small_cover.jpg Video ID : 1 Format : AVC Format/Info : Advanced Video Codec Format profile : High@L4.1 Format settings : CABAC / 12 Ref Frames Format settings, CABAC : Yes Format settings, Reference : 12 frames Codec ID : V_MPEG4/ISO/AVC Duration : 1 h 33 min Bit rate : 8 018 kb/s Width : 1 280 pixels Height : 536 pixels Display aspect ratio : 2.40:1 Frame rate mode : Constant Frame rate : 24.000 FPS Color space : YUV Chroma subsampling : 4:2:0 Bit depth : 8 bits Scan type : Progressive Bits/(Pixel*Frame) : 0.487 Stream size : 5.22 GiB (91%) Title : -=DoMiNo=- Writing library : x264 core 164 r3106+55M 24adf88 t_mod_New | by -=DoMiNo=- | X86_64] Encoding settings : cabac=1 / ref=12 / deblock=1:-2:-2 / analyse=0x3:0x133 / me=umh / subme=10 / psy=1 / fade_compensate=0.00 / psy_rd=1.02:0.02 / mixed_ref=1 / me_range=32 / chroma_me=1 / trellis=2 / 8x8dct=1 / cqm=0 / deadzone=21,11 / fast_pskip=0 / chroma_qp_offset=-3 / threads=17 / lookahead_threads=4 / sliced_threads=0 / nr=0 / decimate=1 / interlaced=0 / bluray_compat=0 / constrained_intra=0 / fgo=0 / bframes=11 / b_pyramid=2 / b_adapt=2 / b_bias=0 / direct=3 / weightb=1 / open_gop=0 / weightp=2 / keyint=240 / keyint_min=24 / scenecut=40 / intra_refresh=0 / rc_lookahead=60 / rc=crf / mbtree=0 / crf=18.0000 / qcomp=0.70 / qpmin=0:0:0 / qpmax=69:69:69 / qpstep=4 / vbv_maxrate=50000 / vbv_bufsize=62500 / crf_max=0.0 / nal_hrd=none / filler=0 / ip_ratio=1.35 / pb_ratio=1.25 / aq=3:0.80 / aq-sensitivity=10.00 / aq-factor=1.00:1.00:1.00 / aq2=0 / aq3=0 Language : English Default : Yes Forced : No Color range : Limited Matrix coefficients : BT.709 Audio #1 ID : 2 Format : AC-3 Format/Info : Audio Coding 3 Commercial name : Dolby Digital Codec ID : A_AC3 Duration : 1 h 33 min Bit rate mode : Constant Bit rate : 192 kb/s Channel(s) : 2 channels Channel layout : L R Sampling rate : 48.0 kHz Frame rate : 31.250 FPS (1536 SPF) Compression mode : Lossy Stream size : 128 MiB (2%) Title : MVO_
Релиз: Присоединяйся к: Кликай на баннеры.

Всего файлов в раздаче: 1 
Mad.Heidi.2022.BDRip.720p.x264.seleZen.mkv5.76 GB

Похожие раздачи по запросу - Безумная
2024-02-26 magnet Безумная поездочка / Joy Ride (2023) HDRip-AVC от DoMiNo & селезень | D | Мосфильм-Мастер 1.47 GB ↑ 0 ↓ 0

Кто качает (только для создателя раздачи и модераторов): Локальные пиры отсутствуют

Комментарии


Зарегистрируйтесь чтобы добавить комментарий
Торрент клиент
byTorrent - программа для загрузки торрент-файлов.

Скачать byTorrent.exe (1,5 МБ)

Скачать byTorrent.zip (0,6 МБ)

Поддержи torrent.by
российских рублей
(300 российских рублей это 4$)

Обратная связь rss

End game ©