↑↓torrent.by
Поиск
Логин:  Регистрация
Пароль:

Алла-Такси [S01] (2022-2023) WEBRip 1080p от Files-x

download Скачать торрент-файл   magnet Магнитная ссылка Размер: 29.16 GB Добавлен: 2024-03-22 17:00
Пиры будут получены из сети DHT
Последний сидер был замечен 2024-03-23 15:15
Информация о фильме Оригинальное название: Алла-Такси Год выхода: 2022-2023 Жанр: Мелодрама Режиссер: Рауф Кубаев В ролях: Светлана Колпакова, Александр Михайлов, Роман Мадянов, Ольга Прокофьева, Андрей Чернышов, Марат Башаров, Евгений Миллер, Юлия Такшина, Марина Кондратьева, Мирослава Михайлова, Денис Давыдов (V), Ольга Дегтярева, Анастасия Ровенских, Владислав Здоров О фильме: Алла живет в деревне, она давно замужем за дальнобойщиком Васей и воспитывает сына Юру. Уличив мужа в измене, героиня уходит от него. Но свекровь Зинаида, могущественная начальница местной администрации, не позволяет Алле забрать сына и запрещает ей видеться с ним. Оставшись без семьи и без средств к существованию, Алла устраивается на работу в таксопарк. В суровом мужском коллективе ее воспринимают в штыки – раньше женщины здесь не работали даже мойщицами. Но и среди таксистов находится тот, кто встает на защиту героини – Сергей Проскурин. Сможет ли Алла заслужить доверие коллег? Сумеет ли вернуть сына? И кто же растопит ее сердце: бывший муж, вознамерившийся вновь завоевать Аллу, или её скромный защитник Проскурин? Страна: Россия Студия: Кинокомпания Русское, Студия Весна, ВГТРК Продолжительность: 16 х 00:52:00 Перевод: Не требуется Файл Кодек: AVC Качество: WEBRip 1080p Видео: MPEG-4 AVC, ~ 5000 Кбит/с, 1920x1080, 25 кадр/с Звук: AC3, 2 ch, 192 Кбит/с
[+] Скриншоты
[+] MediaInfo General Unique ID : 203136351463259377539388646679916398986 (0x98D2A36193DE02F58DD94A7E27B9498A) Complete name : C:01.Алла-Такси.s01.E01.(2022).WEBRip (1080p).by.Nicodem.Files-x.mkv Format : Matroska File size : 1.84 GiB Duration : 52mn 31s Overall bit rate : 5 006 Kbps Encoded date : UTC 2024-03-06 22:52:24 Writing application : mkvmerge v7.8.0 ('River Man') 32bit built on Apr 3 2015 12:11:22 Writing library : libebml v1.3.1 + libmatroska v1.4.2 Video ID : 1 Format : AVC Format/Info : Advanced Video Codec Format profile : High@L4.0 Format settings, CABAC : Yes Format settings, ReFrames : 2 frames Codec ID : V_MPEG4/ISO/AVC Duration : 52mn 31s Bit rate mode : Variable Bit rate : 4 714 Kbps Maximum bit rate : 8 000 Kbps Width : 1 920 pixels Height : 1 080 pixels Display aspect ratio : 16:9 Frame rate : 25.000 fps Color space : YUV Chroma subsampling : 4:2:0 Bit depth : 8 bits Scan type : Progressive Bits/(Pixel*Frame) : 0.091 Stream size : 1.73 GiB (94%) Audio ID : 2 Format : AC-3 Format/Info : Audio Coding 3 Mode extension : CM (complete main) Codec ID : A_AC3 Duration : 52mn 31s Bit rate mode : Constant Bit rate : 192 Kbps Channel(s) : 2 channels Channel positions : Front: L R Sampling rate : 48.0 KHz Bit depth : 16 bits Compression mode : Lossy Delay relative to video : -40ms Stream size : 72.1 MiB (4%)
Релиз от:

Всего файлов в раздаче: 16 
01.Алла-Такси.s01.E01.(2022).WEBRip (1080p).by.Nicodem.Files-x.mkv1.84 GB
02.Алла-Такси.s01.E02.(2022).WEBRip (1080p).by.Nicodem.Files-x.mkv1.83 GB
03.Алла-Такси.s01.E03.(2022).WEBRip (1080p).by.Nicodem.Files-x.mkv1.82 GB
04.Алла-Такси.s01.E04.(2022).WEBRip (1080p).by.Nicodem.Files-x.mkv1.81 GB
05.Алла-Такси.s01.E05.(2022).WEBRip (1080p).by.Nicodem.Files-x.mkv1.82 GB
06.Алла-Такси.s01.E06.(2022).WEBRip (1080p).by.Nicodem.Files-x.mkv1.82 GB
07.Алла-Такси.s01.E07.(2022).WEBRip (1080p).by.Nicodem.Files-x.mkv1.82 GB
08.Алла-Такси.s01.E08.(2022).WEBRip (1080p).by.Nicodem.Files-x.mkv1.83 GB
09.Алла-Такси.s01.E09.(2023).WEBRip (1080p).by.Nicodem.Files-x.mkv1.82 GB
10.Алла-Такси.s01.E10.(2023).WEBRip (1080p).by.Nicodem.Files-x.mkv1.83 GB
Показать все файлы

Похожие раздачи по запросу - Алла-Такси
2024-04-01 magnet Алла Пугачёва - Я летала [Unofficial Release, Remastered] (2024) FLAC 1.64 GB ↑ 1 ↓ 0
2024-03-29 magnet Алла Пугачёва - P.S [Live Album] (2024) FLAC 640.30 MB ↑ 0 ↓ 0
2024-03-29 magnet Владимир Кузьмин и Алла Пугачёва - Две звезды [Vinyl-Rip] (2023) FLAC 944.59 MB ↑ 0 ↓ 0
2024-03-25 magnet Алла-Такси [01-16 из 16] (2022-2023) WEBRip от Generalfilm | КПК 3.10 GB ↑ 0 ↓ 0
2024-03-23 magnet Алла-Такси [01-16 из 16] (2022-2023) WEBRip 720p от ivandubskoj 14.32 GB ↑ 0 ↓ 0
2024-03-22 magnet Алла-Такси [01-16 из 16] (2022) WEBRip от Files-x 10.44 GB ↑ 0 ↓ 0
2024-03-22 magnet Алла-Такси [S01] (2022) WEBRip-AVC от Files-х 10.45 GB ↑ 0 ↓ 0

Комментарии


Зарегистрируйтесь чтобы добавить комментарий
Торрент клиент
byTorrent - программа для загрузки торрент-файлов.

Скачать byTorrent.exe (1,5 МБ)

Скачать byTorrent.zip (0,6 МБ)

Поддержи torrent.by
российских рублей
(300 российских рублей это 4$)

Обратная связь rss

End game ©