↑↓torrent.by
Поиск
Логин:  Регистрация
Пароль:

МиниМакс (2020) WEB-DLRip 720p от New-Team

download Скачать торрент-файл   magnet Магнитная ссылка Размер: 2.18 GB Добавлен: 2024-03-22 17:00
Пиры будут получены из сети DHT
Последний сидер был замечен 2024-03-29 14:32
Страна: Россия Производство: Интерфест, Реал-Дакота Жанр: комедия, фантастика Год выпуска: 2020 Продолжительность: 01:21:00 Перевод: не требуется Оригинальная аудиодорожка: русский Cубтитры: нет Режиссер: Олег Асадулин В ролях: Пётр Фёдоров (младший), Евгения Малахова, Ирина Розанова, Юрий Стоянов, Артём Фадеев, Марк Богатырёв, Ян Цапник, Ирина Медведева, Андрей Касницкий, Александр Новиков (X), Зураб Гурцкаия, Владимир Ширяев (II), Софья Лебедева, Николай Аверюшкин, Андрей Негинский, Андрей Жулинский, Владимир Яканин, Павел Мисаилов, Кристина Бабушкина, Алиса Школина, Анна Звижинская, Любовь Соколинская, Артём Башенин, Ефим Шароха... Подробнее об актерах Описание: Молодой и невероятно талантливый ученый Максим Минаев, который стоит на пороге грандиозного открытия, сулящего ему Нобелевскую премию. В погоне за славой и наградой Максим проводит рискованный эксперимент на самом себе и уменьшается до размеров обычной пробирки. Оказавшись в сложной ситуации, главный герой понимает, что остался один на один со своими проблемами – любимая девушка бросила, а лучший друг оказался предателем. Помочь герою соглашается лишь 12-летний мальчик, прикованный к инвалидному креслу. Исходник: WEB-DL 1080p Тип релиза: WEB-DLRip 720p Контейнер: MKV Видео: 1280x720 (16:9), 25,000 кадров/сек, x264 core 164 r3182 ~ 3 657 кбит/сек, 0.159 бит/пиксель Аудио: 48 кГц, Dolby Digital AC3 2.0, 192 кбит/сек Раздача от:
[+] MediaInfo Общее Полное имя : Минимакс.2020.WEB-DLRip720p__by_AVP_Studio.mkv Формат : Matroska Версия формата : Version 2 Размер файла : 2,18 Гбайт Продолжительность : 1 ч. 21 м. Общий поток : 3 846 Кбит/сек Частота кадров : 25,000 кадров/сек Дата кодирования : 2024-03-21 15:00:23 UTC Программа кодирования : mkvmerge v6.9.1 ('Blue Panther') 32bit built on Apr 18 2014 18:15:44 Библиотека кодирования : libebml v1.3.0 + libmatroska v1.4.1 Видео Идентификатор : 1 Формат : AVC Формат/Информация : Advanced Video Codec Профиль формата : High@L4.1 Настройки формата : CABAC / 8 Ref Frames Параметр CABAC формата : Да Параметр RefFrames формата : 8 кадров Идентификатор кодека : V_MPEG4/ISO/AVC Продолжительность : 1 ч. 21 м. Битрейт : 3 657 Кбит/сек Ширина : 1 280 пикселей Высота : 720 пикселей Соотношение сторон : 16:9 Режим частоты кадров : Постоянный Частота кадров : 25,000 кадров/сек Цветовое пространство : YUV Субдискретизация насыщенности : 4:2:0 Битовая глубина : 8 бит Тип развёртки : Прогрессивная Бит/(Пиксели*Кадры) : 0.159 Размер потока : 2,02 Гбайт (93%) Библиотека кодирования : x264 core 164 r3182 be4f020 Настройки программы : cabac=1 / ref=8 / deblock=1:-3:-3 / analyse=0x3:0x133 / me=umh / subme=10 / psy=1 / psy_rd=1.00:0.00 / mixed_ref=1 / me_range=32 / chroma_me=1 / trellis=2 / 8x8dct=1 / cqm=0 / deadzone=21,11 / fast_pskip=1 / chroma_qp_offset=-2 / threads=6 / lookahead_threads=1 / sliced_threads=0 / nr=0 / decimate=0 / interlaced=0 / bluray_compat=0 / constrained_intra=0 / bframes=8 / b_pyramid=2 / b_adapt=2 / b_bias=0 / direct=3 / weightb=1 / open_gop=0 / weightp=2 / keyint=250 / keyint_min=25 / scenecut=40 / intra_refresh=0 / rc=2pass / mbtree=0 / bitrate=3657 / ratetol=1.0 / qcomp=0.60 / qpmin=0 / qpmax=69 / qpstep=4 / cplxblur=20.0 / qblur=0.5 / ip_ratio=1.40 / pb_ratio=1.30 / aq=1:1.00 Default : Да Forced : Нет Аудио Идентификатор : 2 Формат : AC-3 Формат/Информация : Audio Coding 3 Коммерческое название : Dolby Digital Идентификатор кодека : A_AC3 Продолжительность : 1 ч. 21 м. Вид битрейта : Постоянный Битрейт : 192 Кбит/сек Каналы : 2 канала Channel layout : L R Частота : 48,0 КГц Частота кадров : 31,250 кадров/сек (1536 SPF) Метод сжатия : С потерями Размер потока : 111 Мбайт (5%) Default : Да Forced : Нет
[+] Скриншоты

Всего файлов в раздаче: 1 
Минимакс.2020.WEB-DLRip720p_[New-team]_by_AVP_Studio.mkv2.18 GB

Похожие раздачи по запросу - МиниМакс
2024-03-23 magnet МиниМакс (2020) WEBRip-AVC от New-Team 1.46 GB ↑ 0 ↓ 0
2024-03-22 magnet МиниМакс (2020) WEB-DLRip от New-Team 745.21 MB ↑ 0 ↓ 0

Комментарии


Зарегистрируйтесь чтобы добавить комментарий
Торрент клиент
byTorrent - программа для загрузки торрент-файлов.

Скачать byTorrent.exe (1,5 МБ)

Скачать byTorrent.zip (0,6 МБ)

Поддержи torrent.by
российских рублей
(300 российских рублей это 4$)

Обратная связь rss

End game ©