↑↓torrent.by
Поиск
Логин:  Регистрация
Пароль:

МиниМакс (2020) WEB-DLRip от New-Team

download Скачать торрент-файл   magnet Магнитная ссылка Размер: 745.21 MB Добавлен: 2024-03-22 17:00
Пиры будут получены из сети DHT
Последний сидер был замечен 2024-04-07 01:20
Страна: Россия Производство: Интерфест, Реал-Дакота Жанр: комедия, фантастика Год выпуска: 2020 Продолжительность: 01:21:00 Перевод: не требуется Оригинальная аудиодорожка: русский Cубтитры: нет Режиссер: Олег Асадулин В ролях: Пётр Фёдоров (младший), Евгения Малахова, Ирина Розанова, Юрий Стоянов, Артём Фадеев, Марк Богатырёв, Ян Цапник, Ирина Медведева, Андрей Касницкий, Александр Новиков (X), Зураб Гурцкаия, Владимир Ширяев (II), Софья Лебедева, Николай Аверюшкин, Андрей Негинский, Андрей Жулинский, Владимир Яканин, Павел Мисаилов, Кристина Бабушкина, Алиса Школина, Анна Звижинская, Любовь Соколинская, Артём Башенин, Ефим Шароха... Подробнее об актерах Описание: Молодой и невероятно талантливый ученый Максим Минаев, который стоит на пороге грандиозного открытия, сулящего ему Нобелевскую премию. В погоне за славой и наградой Максим проводит рискованный эксперимент на самом себе и уменьшается до размеров обычной пробирки. Оказавшись в сложной ситуации, главный герой понимает, что остался один на один со своими проблемами – любимая девушка бросила, а лучший друг оказался предателем. Помочь герою соглашается лишь 12-летний мальчик, прикованный к инвалидному креслу. Исходник: WEB-DL 1080p Тип релиза: WEB-DLRip Контейнер: AVI Видео: 720x400 (16:9), 25,000 кадров/сек, XviD 73 ~ 1 085 кбит/сек, 0.151 бит/пиксель Аудио: 48 кГц, Dolby Digital AC3 2.0, 192 кбит/сек Раздача от:
[+] MediaInfo Общее Полное имя : Минимакс.2020.WEB-DLRip__by_AVP_Studio.avi Формат : AVI Формат/Информация : Audio Video Interleave Настройки формата : BitmapInfoHeader / WaveFormatEx Размер файла : 745 Мбайт Продолжительность : 1 ч. 21 м. Общий поток : 1 286 Кбит/сек Частота кадров : 25,000 кадров/сек Программа кодирования : VirtualDubMod 1.5.10.3 | www.virtualdub-fr.org || (build 2550/release) Библиотека кодирования : VirtualDubMod build 2550/release Видео Идентификатор : 0 Формат : MPEG-4 Visual Профиль формата : Advanced Simple@L5 Настройки формата : BVOP1 / Custom Matrix Параметр BVOP формата : 1 Параметр QPel формата : Нет Параметр GMC формата : Без точки перехода Параметр матрицы формата : Выборочная Идентификатор кодека : XVID Идентификатор кодека/Подсказка : XviD Продолжительность : 1 ч. 21 м. Битрейт : 1 085 Кбит/сек Ширина : 720 пикселей Высота : 400 пикселей Соотношение сторон : 16:9 Частота кадров : 25,000 кадров/сек Цветовое пространство : YUV Субдискретизация насыщенности : 4:2:0 Битовая глубина : 8 бит Тип развёртки : Прогрессивная Метод сжатия : С потерями Бит/(Пиксели*Кадры) : 0.151 Размер потока : 628 Мбайт (84%) Библиотека кодирования : XviD 73 Аудио Идентификатор : 1 Формат : AC-3 Формат/Информация : Audio Coding 3 Коммерческое название : Dolby Digital Идентификатор кодека : 2000 Продолжительность : 1 ч. 21 м. Вид битрейта : Постоянный Битрейт : 192 Кбит/сек Каналы : 2 канала Channel layout : L R Частота : 48,0 КГц Частота кадров : 31,250 кадров/сек (1536 SPF) Метод сжатия : С потерями Размер потока : 111 Мбайт (15%) Выравнивание : Разделение по промежуткам Продолжительность промежутка : 40 мс. (1,00 видеокадр) Время предзагрузки промежутка : 500 мс
[+] Скриншоты

Всего файлов в раздаче: 1 
Минимакс.2020.WEB-DLRip_[New-team]_by_AVP_Studio.avi745.21 MB

Похожие раздачи по запросу - МиниМакс
2024-03-23 magnet МиниМакс (2020) WEBRip-AVC от New-Team 1.46 GB ↑ 0 ↓ 0
2024-03-22 magnet МиниМакс (2020) WEB-DLRip 720p от New-Team 2.18 GB ↑ 0 ↓ 0

Комментарии


Зарегистрируйтесь чтобы добавить комментарий
Торрент клиент
byTorrent - программа для загрузки торрент-файлов.

Скачать byTorrent.exe (1,5 МБ)

Скачать byTorrent.zip (0,6 МБ)

Поддержи torrent.by
российских рублей
(300 российских рублей это 4$)

Обратная связь rss

End game ©