↑↓torrent.by
Поиск
Логин:  Регистрация
Пароль:

Scooter - Open Your Mind And Your Trousers [24Bit, Hi-Res] (2024) FLAC

download Скачать торрент-файл   magnet Магнитная ссылка Размер: 526.56 MB Добавлен: 2024-03-22 17:00
Пиры будут получены из сети DHT
Последний сидер был замечен 2024-03-30 17:02
Scooter - Open Your Mind And Your Trousers (2024) Жанр: Techno, Hard Trance, House Издание: Sheffield Tunes Источник: ссылка Продолжительность: 00:42:28 Кодек: FLAC 24/44.1 Битрейт: Lossless|WEB-DL Тип рипа: tracks Треклист: 01 – Thirty, Rough And Dirty 02 – Rave & Shout (feat. Harris & Ford) 03 – Posse Reloaded (feat. FiNCH) 04 – Techno Is Back (feat. Harris & Ford) 05 – I Keep Hearing Bingo 06 – Children Of The Rave 07 – Let’s Do It Again 08 – Waste Your Youth 09 – Sun Comes Back Around 10 – For Those About To Rave 11 – ARDRHU 12 – Berliner Luft 13 – Ten Feet 14 – Constellations 15 – Avoid Rivals
[+] Отчёт Dynamic Range Meter: foobar2000 1.5.5 / Dynamic Range Meter 1.1.1 log date: 2024-03-21 17:06:12 -------------------------------------------------------------------------------- Analyzed: Harris & Ford, Scooter / Open Your Mind And Your Trousers (1-2) Scooter, Timmy Trumpet / Open Your Mind And Your Trousers (3) Scooter / Open Your Mind And Your Trousers (4-15) -------------------------------------------------------------------------------- DR Peak RMS Duration Track -------------------------------------------------------------------------------- DR4 -0.20 dB -6.98 dB 3:01 02-Rave & Shout DR4 -0.20 dB -7.76 dB 2:56 04-Techno Is Back DR3 -0.20 dB -4.87 dB 2:43 10-For Those About To Rave DR7 -0.20 dB -9.23 dB 1:45 01-Thirty, Rough And Dirty DR4 -0.20 dB -6.40 dB 2:34 03-Posse Reloaded DR3 -0.20 dB -5.60 dB 2:25 05-I Keep Hearing Bingo DR4 -0.20 dB -7.03 dB 2:28 06-Children Of The Rave DR5 -0.20 dB -6.61 dB 2:11 07-Let's Do It Again DR5 -0.20 dB -7.52 dB 2:44 08-Waste Your Youth DR3 -0.20 dB -6.09 dB 2:34 09-Sun Comes Back Around DR3 -0.20 dB -4.38 dB 3:53 11-ARDRHU DR5 -0.20 dB -7.01 dB 2:47 12-Berliner Luft DR4 -0.20 dB -7.02 dB 3:06 13-Ten Feet DR4 -0.20 dB -6.33 dB 2:56 14-Constellations DR4 -0.20 dB -5.92 dB 4:25 15-Avoid Rivals -------------------------------------------------------------------------------- Number of tracks: 15 Official DR value: DR4 Samplerate: 44100 Hz Channels: 2 Bits per sample: 24 Bitrate: 1678 kbps Codec: FLAC ================================================================================

Всего файлов в раздаче: 16 
01 - Thirty, Rough And Dirty.flac20.11 MB
02 - Rave & Shout.flac38.93 MB
03 - Posse Reloaded.flac31.98 MB
04 - Techno Is Back.flac37.21 MB
05 - I Keep Hearing Bingo.flac29.23 MB
06 - Children Of The Rave.flac30.31 MB
07 - Let's Do It Again.flac26.86 MB
08 - Waste Your Youth.flac34.35 MB
09 - Sun Comes Back Around.flac30.07 MB
10 - For Those About To Rave.flac34.38 MB
Показать все файлы

Похожие раздачи по запросу - Scooter
2024-03-23 magnet Scooter - Open Your Mind And Your Trousers (2024) MP3 1К106.03 MB ↑ 0 ↓ 0
2024-03-23 magnet Scooter - Open Your Mind And Your Trousers (2024) FLAC 314.42 MB ↑ 0 ↓ 0

Комментарии


Зарегистрируйтесь чтобы добавить комментарий
Торрент клиент
byTorrent - программа для загрузки торрент-файлов.

Скачать byTorrent.exe (1,5 МБ)

Скачать byTorrent.zip (0,6 МБ)

Поддержи torrent.by
российских рублей
(300 российских рублей это 4$)

Обратная связь rss

End game ©