↑↓torrent.by
Поиск
Логин:  Регистрация
Пароль:

Зло [01-10 из 12] (2024) WEB-DLRip

download Скачать торрент-файл   magnet Магнитная ссылка Размер: 6.48 GB Добавлен: 2024-03-22 17:00
Пиры будут получены из сети DHT
Последний сидер был замечен 2024-03-27 17:50
Информация о фильме Оригинальное название: Зло Год выпуска: 2024 Жанр: Детектив, криминал Выпущено: Рссия, Пиманов и партнеры, РЕН ТВ Режиссер: Алексей Мурадов В ролях: Даниил Страхов, Евгений Харитонов, Андрей Чернышов, Эдуард Флёров, Павел Трубинер, Александр Устюгов, Любовь Толкалина, Борис Щербаков, Алёна Коломина, Екатерина Олькина, Татьяна Фёдорова (II), Александр Назаров (II), Марина Петренко, Сергей Юшкевич, Евгений Миллер О сериале: По мотивам одноименного романа Эдуарда Хруцкого. 1979 год. Журналист Юрий Ельцов и его друг следователь Игорь Анохин расследуют громкое дело об ограблении известной балерины. Ельцов обращается за помощью к своему старшему брату Игорю, бывшему начальнику МУРа. Брат по своим каналам узнает о причастности к ограблению работника аппарата ЦК. В это же время в Ереване происходит ограбление банка, которое по заданию уголовного авторитета Ястреба совершает специально выпущенный на волю медвежатник Махаон. После ограбления люди Ястреба пытаются убить Махаона и его напарника, но Махаону удается спастись. Он решает обратиться к своему другу детства – журналисту Юрию Ельцову, ведь за Ястребом явно стоит очень влиятельный человек. За попытку разворошить крупное преступное «гнездо под прикрытием» Юрию грозит серьезная опасность. Как принять правильное решение и уберечь близких, когда оказался в центре особого внимания самых влиятельных и опасных людей страны? Юрий вместе с братом и следователем Анохиным сделают все, чтобы раскрыть это запутанное дело. Файл Формат: AVI Качество: WEB-DLRip Видео: XviD, ~ 1650 Кбит/с, 720x304 Аудио: AC3, 2 ch, 192 Кбит/с Продолжительность: ~ 00:50:00 Язык: Русский Субтитры: Нет
[+] MIGeneral Complete name : W:Zlo.S01.2024.WEB-DLRip.DenSBKZlo.S01.E01.2024.WEB-DLRip.DenSBK.avi Format : AVI Format/Info : Audio Video Interleave File size : 654 MiB Duration : 49 min 23 s Overall bit rate : 1 850 kb/s Writing application : VirtualDubMod 1.5.10.3 | www.virtualdub-fr.org || (build 2550/release) Writing library : VirtualDubMod build 2550/release Video ID : 0 Format : MPEG-4 Visual Format profile : Advanced Simple@L5 Format settings : BVOP1 / Custom Matrix Format settings, BVOP : 1 Format settings, QPel : No Format settings, GMC : No warppoints Format settings, Matrix : Custom Codec ID : XVID Codec ID/Hint : XviD Duration : 49 min 23 s Bit rate : 1 649 kb/s Width : 720 pixels Height : 304 pixels Display aspect ratio : 2.35:1 Frame rate : 25.000 FPS Color space : YUV Chroma subsampling : 4:2:0 Bit depth : 8 bits Scan type : Progressive Compression mode : Lossy Bits/(Pixel*Frame) : 0.301 Stream size : 582 MiB (89%) Writing library : XviD 73 Audio ID : 1 Format : AC-3 Format/Info : Audio Coding 3 Codec ID : 2000 Duration : 49 min 23 s Bit rate mode : Constant Bit rate : 192 kb/s Channel(s) : 2 channels Channel positions : Front: L R Sampling rate : 48.0 kHz Frame rate : 31.250 FPS (1536 SPF) Bit depth : 16 bits Compression mode : Lossy Stream size : 67.8 MiB (10%) Alignment : Split accross interleaves Interleave, duration : 40 ms (1.00 video frame) Interleave, preload duratio : 500 ms Service kind : Complete Main
[+] Скриншоты

Всего файлов в раздаче: 10 
Zlo.S01.E01.2024.WEB-DLRip.DenSBK.avi653.71 MB
Zlo.S01.E02.2024.WEB-DLRip.DenSBK.avi664.26 MB
Zlo.S01.E03.2024.WEB-DLRip.DenSBK.avi675.65 MB
Zlo.S01.E04.2024.WEB-DLRip.DenSBK.avi669.40 MB
Zlo.S01.E05.2024.WEB-DLRip.DenSBK.avi671.19 MB
Zlo.S01.E06.2024.WEB-DLRip.DenSBK.avi658.59 MB
Zlo.S01.E07.2024.WEB-DLRip.DenSBK.avi663.24 MB
Zlo.S01.E08.2024.WEB-DLRip.DenSBK.avi662.64 MB
Zlo.S01.E09.2024.WEB-DLRip.DenSBK.avi659.66 MB
Zlo.S01.E10.2024.WEB-DLRip.DenSBK.avi654.95 MB

Похожие раздачи по запросу - Зло
2024-04-05 magnet Сандроне Дациери - Зло, которое творят люди (2024) МР3 1.12 GB ↑ 0 ↓ 0
2024-04-05 magnet Зло [S01] (2024) WEB-DLRip от Files-x 7.45 GB ↑ 0 ↓ 0
2024-04-01 magnet Зло [S01] (2024) WEB-DLRip-AVC от Generalfilm | КПК 2.67 GB ↑ 0 ↓ 0
2024-03-30 magnet Зло [S01] (2024) WEB-DLRip от Generalfilm | КПК 2.24 GB ↑ 1 ↓ 0
2024-03-29 magnet Зло [S01] (2024) WEB-DLRip 7.76 GB ↑ 0 ↓ 0
2024-03-29 magnet Зло [S01] (2024) WEB-DLRip-AVC от Files-x 7.53 GB ↑ 0 ↓ 0
2024-03-29 magnet Зло [S01] (2024) WEB-DL 1080p 17.56 GB ↑ 0 ↓ 0

Комментарии


Зарегистрируйтесь чтобы добавить комментарий
Торрент клиент
byTorrent - программа для загрузки торрент-файлов.

Скачать byTorrent.exe (1,5 МБ)

Скачать byTorrent.zip (0,6 МБ)

Поддержи torrent.by
российских рублей
(300 российских рублей это 4$)

Обратная связь rss

End game ©