↑↓torrent.by
Поиск
Логин:  Регистрация
Пароль:

Полиция Токио / Tokyo Vice [02x01-08 из 10] (2024) WEB-DL 1080p | HDrezka Studio

download Скачать торрент-файл   magnet Магнитная ссылка Размер: 28.04 GB Добавлен: 2024-03-23 05:00
Пиры будут получены из сети DHT
Последний сидер был замечен 2024-04-03 18:00
Информация о фильме Название: Полиция Токио Оригинальное название: Tokyo Vice Год выхода: 2024 Жанр: триллер, драма, криминал Режиссер: Джозеф Владыка, Киёка Миядзаки, Майкл Манн В ролях: Энсел Элгорт, Кэн Ватанабэ, Рэйчел Келлер, Сё Касамацу, Томохиса Ямасита, Элла Румпф, Сюн Сугата, Масато Хагивара, Косукэ Тоёхара, Аюми Танида О фильме: 1990-е. Джейк Адельштейн (Элгорт) переезжает из Миссури в Японию, чтобы стать первым американским журналистом в местной газете. Его профиль — криминальная жизнь Токио, разобраться в которой янки помогает опытный детектив Хирото Катагири (Ватанабе). Начав с коррупции в полицейских участках, Адельштейн все глубже погружается в мир якудза. Сериал основан на реальных событиях и книге Адельштейна, которого изначально должен был играть Дэниэл Рэдклифф. В режиссерском кресле — Майкл Манн, Киёка Миядзаки («37 секунд») и Дестин Дэниел Креттон («Короткий срок 12» и «Шан-чи»). Страна: США Продолжительность: ~00:55:00 серия Перевод: Профессиональный (многоголосый, закадровый) HDrezka Studio Файл Кодек: MKV Качество: WEB-DL 1080p Видео: AVC, 1920x960 (2,000), 7731 kbps (0.175 b/px), 23,976 fps Звук: Аудио #1: AC3, 192 kbps (CBR), 48.0 KHz , 2 ch, Russian - HDRezka Studio Аудио #2: E-AC-3, 640 kbps (CBR), 48.0 KHz, 6 ch, English Субтитры: Русские (Forced, FULL), английские (Hardsub, Full, SDH) РЕКЛАМЫ НЕТ
[+] MediaInfoОбщее Уникальный идентификатор : 159514610939452574807113009791154326970 (0x780165861B564529D8DCBFF3FCE10DBA) Полное имя : E:СЕРИАЛЫTokyo.Vice.S02.1080pTokyo.Vice.S02E01.1080p.mkv Формат : Matroska Версия формата : Version 4 Размер файла : 3,44 Гбайт Продолжительность : 57 м. 32 с. Общий поток : 8 565 Кбит/сек Частота кадров : 23,976 кадра/сек Дата кодирования : 2024-02-11 12:49:27 UTC Программа кодирования : mkvmerge v45.0.0 ('Heaven in Pennies') 64-bit Библиотека кодирования : libebml v1.3.10 + libmatroska v1.5.2 Видео Идентификатор : 1 Формат : AVC Формат/Информация : Advanced Video Codec Профиль формата : High@L4 Настройки формата : CABAC / 4 Ref Frames Параметр CABAC формата : Да Параметр RefFrames формата : 4 кадра Идентификатор кодека : V_MPEG4/ISO/AVC Продолжительность : 57 м. 32 с. Вид битрейта : Постоянный Битрейт : 7 731 Кбит/сек Номинальный битрейт : 10 000 Кбит/сек Ширина : 1 920 пикселей Высота : 960 пикселей Соотношение сторон : 2,000 Режим частоты кадров : Постоянный Частота кадров : 23,976 (24000/1001) кадра/сек Цветовое пространство : YUV Субдискретизация насыщенности : 4:2:0 Битовая глубина : 8 бит Тип развёртки : Прогрессивная Бит/(Пиксели*Кадры) : 0.175 Размер потока : 3,11 Гбайт (90%) Default : Да Forced : Нет Цветовой диапазон : Limited Основные цвета : BT.709 Характеристики трансфера : BT.709 Коэффициенты матрицы : BT.709 Аудио #1 Идентификатор : 2 Формат : AC-3 Формат/Информация : Audio Coding 3 Коммерческое название : Dolby Digital Идентификатор кодека : A_AC3 Продолжительность : 57 м. 32 с. Вид битрейта : Постоянный Битрейт : 192 Кбит/сек Каналы : 2 канала Channel layout : L R Частота : 48,0 КГц Частота кадров : 31,250 кадров/сек (1536 SPF) Метод сжатия : С потерями Размер потока : 79,0 Мбайт (2%) Заголовок : HDR Язык : Russian Service kind : Complete Main Default : Да Forced : Нет Аудио #2 Идентификатор : 3 Формат : E-AC-3 JOC Формат/Информация : Enhanced AC-3 with Joint Object Coding Коммерческое название : Dolby Digital Plus with Dolby Atmos Идентификатор кодека : A_EAC3 Продолжительность : 57 м. 32 с. Вид битрейта : Постоянный Битрейт : 640 Кбит/сек Каналы : 6 каналов Channel layout : L R C LFE Ls Rs Частота : 48,0 КГц Частота кадров : 31,250 кадров/сек (1536 SPF) Метод сжатия : С потерями Размер потока : 263 Мбайт (7%) Язык : English Service kind : Complete Main Default : Нет Forced : Нет Complexity index : 16 Number of dynamic objects : 15 Bed channel count : 1 канал Bed channel configuration : LFE Текст #1 Идентификатор : 4 Формат : UTF-8 Идентификатор кодека : S_TEXT/UTF8 Идентификатор кодека/Информация : UTF-8 Plain Text Продолжительность : 47 м. 37 с. Битрейт : 2 бит/сек Частота кадров : 0,008 кадр/сек Count of elements : 24 Размер потока : 943 байт (0%) Заголовок : fors Язык : Russian Default : Да Forced : Нет Текст #2 Идентификатор : 5 Формат : UTF-8 Идентификатор кодека : S_TEXT/UTF8 Идентификатор кодека/Информация : UTF-8 Plain Text Продолжительность : 56 м. 14 с. Битрейт : 68 бит/сек Частота кадров : 0,189 кадр/сек Count of elements : 638 Размер потока : 28,1 Кбайт (0%) Заголовок : FULL Язык : Russian Default : Нет Forced : Нет Текст #3 Идентификатор : 6 Формат : UTF-8 Идентификатор кодека : S_TEXT/UTF8 Идентификатор кодека/Информация : UTF-8 Plain Text Продолжительность : 53 м. 31 с. Битрейт : 44 бит/сек Частота кадров : 0,166 кадр/сек Count of elements : 534 Размер потока : 17,5 Кбайт (0%) Язык : English Default : Нет Forced : Нет Текст #4 Идентификатор : 7 Формат : UTF-8 Идентификатор кодека : S_TEXT/UTF8 Идентификатор кодека/Информация : UTF-8 Plain Text Продолжительность : 56 м. 24 с. Битрейт : 30 бит/сек Частота кадров : 0,144 кадр/сек Count of elements : 488 Размер потока : 12,5 Кбайт (0%) Заголовок : SDH Язык : English Default : Нет Forced : Нет Меню 00:00:00.000 : en:Intro 00:01:13.235 : en:Chapter 1 00:13:15.038 : en:Chapter 3 00:25:54.964 : en:Chapter 4 00:34:49.915 : en:Chapter 5 00:42:20.240 : en:Chapter 6 00:56:32.675 : en:Credits 00:57:24.685 : en:Chapter 7
[+] Скриншоты

Всего файлов в раздаче: 8 
Tokyo.Vice.S02E01.1080p.mkv3.44 GB
Tokyo.Vice.S02E02.1080p.mkv3.87 GB
Tokyo.Vice.S02E03.1080p.mkv3.33 GB
Tokyo.Vice.S02E04.1080p.mkv3.52 GB
Tokyo.Vice.S02E05.1080p.mkv3.37 GB
Tokyo.Vice.S02E06.1080p.mkv3.30 GB
Tokyo.Vice.S02E07.1080p.mkv3.30 GB
Tokyo.Vice.S02E08.1080p.mkv3.90 GB

Похожие раздачи по запросу - Полиция
2024-04-07 magnet Полиция Токио / Tokyo Vice [S02] (2024) WEB-DLRip-AVC от DoMiNo & селезень | HDrezka Studio 1К6.64 GB ↑ 0 ↓ 0
2024-04-07 magnet Полиция Токио / Tokyo Vice [S02] (2024) WEB-DL 1080p | HDrezka Studio 35.86 GB ↑ 0 ↓ 0
2024-04-07 magnet Полиция Токио / Tokyo Vice [S02] (2024) WEB-DL 1080p от NewComers | P 1К35.05 GB ↑ 0 ↓ 0
2024-03-30 magnet Полиция Токио / Tokyo Vice [02x01-09 из из 10] (2024) WEB-DLRip-AVC от DoMiNo & селезень | HDrezka Studio 1К5.86 GB ↑ 0 ↓ 0
2024-03-23 magnet Полиция Токио / Tokyo Vice [02x01-08 из из 10] (2024) WEB-DLRip-AVC от DoMiNo & селезень | HDrezka Studio 1К5.29 GB ↑ 0 ↓ 0
2024-03-16 magnet Полиция Токио / Tokyo Vice [02x01-07 из 08] (2024) WEB-DL 1080p | HDrezka Studio 24.14 GB ↑ 0 ↓ 0
2024-02-10 magnet Полиция Токио / Tokyo Vice [S01] (2022) WEB-DLRip-AVC от DoMiNo | HDrezka Studio 1К8.72 GB ↑ 0 ↓ 0

Комментарии


Зарегистрируйтесь чтобы добавить комментарий
Торрент клиент
byTorrent - программа для загрузки торрент-файлов.

Скачать byTorrent.exe (1,5 МБ)

Скачать byTorrent.zip (0,6 МБ)

Поддержи torrent.by
российских рублей
(300 российских рублей это 4$)

Обратная связь rss

End game ©