↑↓torrent.by
Поиск
Логин:  Регистрация
Пароль:

Криминальная фишка от Генри / Henry's Crime (2011) WEB-DLRip-AVC от DoMiNo | D | Open Matte

download Скачать торрент-файл   magnet Магнитная ссылка Размер: 2.50 GB Добавлен: 2024-03-23 05:00
Пиры будут получены из сети DHT
Последний сидер был замечен 2024-03-24 12:40
Информация о фильме Название: Криминальная фишка от Генри Оригинальное название: Henry's Crime Год выхода: 2011 Жанр: мелодрама, комедия, криминал Режиссер: Малькольм Венвилль В ролях: Киану Ривз, Джеймс Каан, Вера Фармига, Петер Стормаре, Джуди Грир, Дэнни Хоч, Фишер Стивенс, Карри Грэм, Дэвид Костабайл, Билл Дьюк О фильме: Встречайте Генри - самого унылого парня в Америке. Он сидит в своей будке у дороги, взимая пошлину с проезжающих. Казалось, в его жизни ничто не может измениться. Но однажды сомнительный приятель попросил Генри подождать его у крыльца главного банка в Буффало... В результате – три года тюрьмы по ложному обвинению в ограблении. Но пройдет время, и Генри вернется к тому самому банку, чтобы взять свое… Страна: США Выпущено: Company Films, Firstar Films, Inspired Actions, Mimran Schur Pictures Продолжительность: 01:47:33 Перевод: Профессиональный (дублированный) Субтитры: Русские, английские Файл Формат: Matroska Качество: WEB-DLRip-AVC | Open Matte Видео: 1024x576 at 23.976 fps, x264@L4.1, ~2500 kbps Аудио 1: AC3, 6 ch, ~384 kbps - | Русский | - Аудио 2: AC3, 6 ch, ~448 kbps - | Английский | - Формат субтитров: softsub (SRT) ***Релиз от: -=DoMiNo=-
[+] Примечание & Сравнения:Исходник WEB-DL Amazon. Open Matte-версия фильма имеет другое наполнение кадра по сравнению с Blu-ray.
[+] M/Ix264 info: frame I:1472 Avg QP:14.44 size: 79915 x264 info: frame P:31914 Avg QP:16.83 size: 27380 x264 info: frame B:121353 Avg QP:18.24 size: 8378 General Unique ID : 146347316132029373990003504371833625758 (0x6E1977C47D3FA576BF65506BB725DC9E) Complete name : G:Henry's.Crime.(2011).WEB-DLRip-AVC.O.M.mkv Format : Matroska Format version : Version 4 File size : 2.50 GiB Duration : 1 h 47 min Overall bit rate : 3 323 kb/s Encoded date : UTC 2021-09-28 18:07:51 Writing application : mkvmerge v61.0.0 ('So') 64-bit Writing library : libebml v1.4.2 + libmatroska v1.6.4 Cover : Yes Attachments : Cover.jpg / Cover 2.jpg Video ID : 1 Format : AVC Format/Info : Advanced Video Codec Format profile : High@L4.1 Format settings : CABAC / 12 Ref Frames Format settings, CABAC : Yes Format settings, Reference : 12 frames Codec ID : V_MPEG4/ISO/AVC Duration : 1 h 47 min Bit rate : 2 500 kb/s Width : 1 024 pixels Height : 576 pixels Display aspect ratio : 16:9 Frame rate mode : Constant Frame rate : 23.976 (24000/1001) FPS Color space : YUV Chroma subsampling : 4:2:0 Bit depth : 8 bits Scan type : Progressive Bits/(Pixel*Frame) : 0.177 Stream size : 1.87 GiB (75%) Title : -=DoMiNo=- Writing library : x264 core 161 r3020 d198931 Encoding settings : cabac=1 / ref=12 / deblock=1:-3:-3 / analyse=0x3:0x133 / me=umh / subme=9 / psy=1 / psy_rd=1.00:0.05 / mixed_ref=1 / me_range=32 / chroma_me=1 / trellis=2 / 8x8dct=1 / cqm=0 / deadzone=21,11 / fast_pskip=0 / chroma_qp_offset=-3 / threads=24 / lookahead_threads=4 / sliced_threads=0 / nr=0 / decimate=0 / interlaced=0 / bluray_compat=0 / constrained_intra=0 / bframes=9 / b_pyramid=2 / b_adapt=2 / b_bias=0 / direct=3 / weightb=1 / open_gop=0 / weightp=2 / keyint=240 / keyint_min=24 / scenecut=40 / intra_refresh=0 / rc=2pass / mbtree=0 / bitrate=2500 / ratetol=1.0 / qcomp=0.60 / qpmin=0 / qpmax=69 / qpstep=4 / cplxblur=20.0 / qblur=0.5 / ip_ratio=1.40 / pb_ratio=1.30 / aq=1:1.00 Language : English Default : Yes Forced : No Color range : Limited Color primaries : BT.709 Transfer characteristics : BT.709 Matrix coefficients : BT.709 Audio #1 ID : 2 Format : AC-3 Format/Info : Audio Coding 3 Commercial name : Dolby Digital Codec ID : A_AC3 Duration : 1 h 47 min Bit rate mode : Constant Bit rate : 384 kb/s Channel(s) : 6 channels Channel layout : L R C LFE Ls Rs Sampling rate : 48.0 kHz Frame rate : 31.250 FPS (1536 SPF) Compression mode : Lossy Stream size : 295 MiB (12%) Title : DUB Language : Russian Service kind : Complete Main Default : Yes Forced : No Audio #2 ID : 3 Format : AC-3 Format/Info : Audio Coding 3 Commercial name : Dolby Digital Codec ID : A_AC3 Duration : 1 h 47 min Bit rate mode : Constant Bit rate : 448 kb/s Channel(s) : 6 channels Channel layout : L R C LFE Ls Rs Sampling rate : 48.0 kHz Frame rate : 31.250 FPS (1536 SPF) Compression mode : Lossy Stream size : 344 MiB (13%) Language : English Service kind : Complete Main Default : No Forced : No Text #1 ID : 4 Format : UTF-8 Codec ID : S_TEXT/UTF8 Codec ID/Info : UTF-8 Plain Text Duration : 1 h 42 min Bit rate : 91 b/s Count of elements : 1393 Stream size : 68.6 KiB (0%) Title : Full 1 Language : Russian Default : No Forced : No Text #2 ID : 5 Format : UTF-8 Codec ID : S_TEXT/UTF8 Codec ID/Info : UTF-8 Plain Text Duration : 1 h 42 min Bit rate : 86 b/s Count of elements : 1346 Stream size : 65.5 KiB (0%) Title : Full 2 Language : Russian Default : No Forced : No Text #3 ID : 6 Format : UTF-8 Codec ID : S_TEXT/UTF8 Codec ID/Info : UTF-8 Plain Text Duration : 1 h 44 min Bit rate : 53 b/s Count of elements : 1347 Stream size : 40.8 KiB (0%) Language : English Default : No Forced : No
[+] Скриншоты

Всего файлов в раздаче: 1 
Henry's.Crime.(2011).WEB-DLRip-AVC.O.M.mkv2.50 GB

Похожие раздачи по запросу - Криминальная
2024-03-23 magnet Криминальная Фишка от Генри / Henry's Crime (2011) BDRip-AVC | D 1.45 GB ↑ 0 ↓ 0

Комментарии


Зарегистрируйтесь чтобы добавить комментарий
Торрент клиент
byTorrent - программа для загрузки торрент-файлов.

Скачать byTorrent.exe (1,5 МБ)

Скачать byTorrent.zip (0,6 МБ)

Поддержи torrent.by
российских рублей
(300 российских рублей это 4$)

Обратная связь rss

End game ©