↑↓torrent.by
Поиск
Логин:  Регистрация
Пароль:

Gossip - Real Power [24Bit, Hi-Res] (2024) FLAC

download Скачать торрент-файл   magnet Магнитная ссылка Размер: 854.63 MB Добавлен: 2024-03-23 05:00
Пиры будут получены из сети DHT
Последний сидер был замечен 2024-03-24 22:03
Gossip - Real Power (2024) Жанр: Indie Pop, Indie Rock Издание: Columbia Local Источник: ссылка Продолжительность: 00:40:58 Кодек: FLAC 24/96 Битрейт: Lossless|WEB-DL Тип рипа: tracks Треклист: 01 – Act of God 02 – Real Power 03 – Don’t Be Afraid 04 – Crazy Again 05 – Edge of the Sun 06 – Give It Up for Love 07 – Turn the Card Slowly 08 – Tell Me Something 09 – Light It Up 10 – Tough 11 – Peace and Quiet
[+] Дополнительная информация: Шестой в дискографии и первый за одиннадцать лет альбом эпатажного трио из Арканзаса. Продюсировал Рик Рубин.
[+] Отчёт Dynamic Range Meter: foobar2000 1.5.5 / Dynamic Range Meter 1.1.1 log date: 2024-03-21 16:26:50 -------------------------------------------------------------------------------- Analyzed: Gossip / Real Power -------------------------------------------------------------------------------- DR Peak RMS Duration Track -------------------------------------------------------------------------------- DR4 -1.30 dB -5.83 dB 3:21 01-Act Of God DR5 -1.30 dB -7.61 dB 4:16 02-Real Power DR5 -1.30 dB -7.45 dB 4:35 03-Don't Be Afraid DR4 -1.30 dB -6.77 dB 3:17 04-Crazy Again DR5 -1.30 dB -8.01 dB 3:48 05-Edge Of The Sun DR4 -1.30 dB -6.54 dB 2:55 06-Give It Up For Love DR5 -1.30 dB -8.10 dB 4:27 07-Turn The Card Slowly DR4 -1.30 dB -6.57 dB 4:09 08-Tell Me Something DR4 -1.30 dB -6.27 dB 3:06 09-Light It Up DR4 -1.30 dB -6.44 dB 3:38 10-Tough DR5 -1.30 dB -7.30 dB 3:30 11-Peace and Quiet -------------------------------------------------------------------------------- Number of tracks: 11 Official DR value: DR4 Samplerate: 96000 Hz Channels: 2 Bits per sample: 24 Bitrate: 2893 kbps Codec: FLAC ================================================================================

Всего файлов в раздаче: 12 
01 - Act Of God.flac74.06 MB
02 - Real Power.flac93.06 MB
03 - Don't Be Afraid.flac93.17 MB
04 - Crazy Again.flac66.61 MB
05 - Edge Of The Sun.flac81.35 MB
06 - Give It Up For Love.flac64.99 MB
07 - Turn The Card Slowly.flac86.47 MB
08 - Tell Me Something.flac87.42 MB
09 - Light It Up.flac66.59 MB
10 - Tough.flac68.06 MB
Показать все файлы

Комментарии


Зарегистрируйтесь чтобы добавить комментарий
Торрент клиент
byTorrent - программа для загрузки торрент-файлов.

Скачать byTorrent.exe (1,5 МБ)

Скачать byTorrent.zip (0,6 МБ)

Поддержи torrent.by
российских рублей
(300 российских рублей это 4$)

Обратная связь rss

End game ©