↑↓torrent.by
Поиск
Логин:  Регистрация
Пароль:

Аргайл: Супершпион / Argylle (2024) WEB-DL 1080p от EniaHD | D, P, P2

download Скачать торрент-файл   magnet Магнитная ссылка Размер: 11.82 GB Раздают: 0 Качают: 1 Добавлен: 2024-03-23 05:00
Пиры будут получены из сети DHT
Последний сидер был замечен 2024-04-14 16:19
Аргайл: Супершпион / Argylle Страна: Великобритания, США Бюджет: $200 000 000 Жанр: боевик, комедия Год выпуска: 2024 Продолжительность: 02:18:56 Перевод 1: Профессиональный (дублированный) - Bravo Records Georgia / Movie Dubbing Роли дублировали: Катя Хейфец, Григорий Лайков, Андрей Бибиков, Максим Щеголев, Маргарита Корш, Анна Андреева, Ярослава Николаева, Алексей Ерохин, Дмитрий Бужинский, Владимир Новосардов, Дмитрий Тихонов, Георгий Вардиашвили, Егор Богданов, Бека Медзмариашвили, Яна Дели, Диана Нерсесова, София Габелия Перевод 2: Профессиональный (многоголосый закадровый) - Jaskier Перевод 3: Профессиональный (многоголосый закадровый) - TVShows Перевод 4: Профессиональный (многоголосый закадровый) - Red Head Sound Перевод 5: Профессиональный (двухголосый закадровый) - ViruseProject Перевод 6 (украинский): Профессиональный (дублированный) - LeDoyen Субтитры: русские (Forced, Full, SDH), английские (Full, SDH), иврит, украинские (Forced, Full, SDH) Режиссер: Мэттью Вон / Matthew Vaughn В ролях: Брайс Даллас Ховард, Сэм Рокуэлл, Брайан Крэнстон, Генри Кавилл, Кэтрин О’Хара, София Бутелла, Дуа Липа, Ариана Дебоуз, Чип, Джон Сина, Сэмюэл Л. Джексон, Томас Паредес, Стэнли Морган, Дэвид Беделл Описание: По одноимённому роману Элли Конвей. Писательница Элли Конвей заканчивает уже пятый роман о приключениях шпиона Обри Аргайла, который борется со зловещей тайной организацией. Когда женщина отправляется на поезде к маме, к ней подсаживается развязный длинноволосый мужчина и сообщает, что он — настоящий шпион, а Элли в своих книгах угадала многое из происходящего в действительности, и им немедленно нужно лететь в Лондон на поиски хакера Бакунина. Тип релиза: WEB-DL 1080p | AMAZON Контейнер: MKV (Сэмпл) Видео: MPEG-4 AVC, 1920x800 (2.40:1), 23.976 fps, 8843 kbps Аудио 1: RUS AC-3, 5.1, 48 kHz, 448 kbps Аудио 2: RUS AC-3, 5.1, 48 kHz, 384 kbps Аудио 3: RUS AC-3, 5.1, 48 kHz, 448 kbps Аудио 4: RUS AAC, 2.0, 48 kHz, 192 kbps Аудио 5: RUS AC-3, 5.1, 48 kHz, 640 kbps Аудио 6: UKR AC-3, 5.1, 48 kHz, 448 kbps Аудио 7: ENG E-AC-3 JOC, 5.1, 48 kHz, 768 kbps Формат субтитров: softsub (SRT)
[+] MediaInfoGeneral Unique ID : 233561398725302180792455284389734108162 (0xAFB64A06C5216523481BFF265DC1CC02) Complete name : Argylle.2024.1080p.AMZN.WEB-DL.H.264-EniaHD.mkv Format : Matroska Format version : Version 4 File size : 11.8 GiB Duration : 2 h 18 min Overall bit rate : 12.2 Mb/s Frame rate : 23.976 FPS Movie name : Argylle (2024) - EniaHD Writing application : mkvmerge v57.0.0 ('Till The End') 64-bit Writing library : libebml v1.4.2 + libmatroska v1.6.4 Video ID : 1 Format : AVC Format/Info : Advanced Video Codec Format profile : High@L4 Format settings : CABAC / 4 Ref Frames Format settings, CABAC : Yes Format settings, Reference fra : 4 frames Codec ID : V_MPEG4/ISO/AVC Duration : 2 h 18 min Bit rate mode : Constant Bit rate : 8 843 kb/s Nominal bit rate : 10 000 kb/s Width : 1 920 pixels Height : 800 pixels Display aspect ratio : 2.40:1 Frame rate mode : Constant Frame rate : 23.976 (24000/1001) FPS Color space : YUV Chroma subsampling : 4:2:0 Bit depth : 8 bits Scan type : Progressive Bits/(Pixel*Frame) : 0.240 Stream size : 8.58 GiB (73%) Default : Yes Forced : No Color range : Limited Color primaries : BT.709 Transfer characteristics : BT.709 Matrix coefficients : BT.709 Audio #1 ID : 2 Format : AC-3 Format/Info : Audio Coding 3 Commercial name : Dolby Digital Codec ID : A_AC3 Duration : 2 h 18 min Bit rate mode : Constant Bit rate : 448 kb/s Channel(s) : 6 channels Channel layout : L R C LFE Ls Rs Sampling rate : 48.0 kHz Frame rate : 31.250 FPS (1536 SPF) Compression mode : Lossy Stream size : 445 MiB (4%) Title : Bravo Records Georgia / Movie Dubbing Language : Russian Service kind : Complete Main Default : Yes Forced : No Audio #2 ID : 3 Format : AC-3 Format/Info : Audio Coding 3 Commercial name : Dolby Digital Codec ID : A_AC3 Duration : 2 h 18 min Bit rate mode : Constant Bit rate : 384 kb/s Channel(s) : 6 channels Channel layout : L R C LFE Ls Rs Sampling rate : 48.0 kHz Frame rate : 31.250 FPS (1536 SPF) Compression mode : Lossy Stream size : 382 MiB (3%) Title : Jaskier Language : Russian Service kind : Complete Main Default : No Forced : No Audio #3 ID : 4 Format : AC-3 Format/Info : Audio Coding 3 Commercial name : Dolby Digital Codec ID : A_AC3 Duration : 2 h 18 min Bit rate mode : Constant Bit rate : 448 kb/s Channel(s) : 6 channels Channel layout : L R C LFE Ls Rs Sampling rate : 48.0 kHz Frame rate : 31.250 FPS (1536 SPF) Compression mode : Lossy Stream size : 445 MiB (4%) Title : TVShows Language : Russian Service kind : Complete Main Default : No Forced : No Audio #4 ID : 5 Format : AAC LC Format/Info : Advanced Audio Codec Low Complexity Codec ID : A_AAC-2 Duration : 2 h 18 min Bit rate : 192 kb/s Channel(s) : 2 channels Channel layout : L R Sampling rate : 48.0 kHz Frame rate : 46.875 FPS (1024 SPF) Compression mode : Lossy Stream size : 192 MiB (2%) Title : Red Head Sound Language : Russian Default : No Forced : No Audio #5 ID : 6 Format : AC-3 Format/Info : Audio Coding 3 Commercial name : Dolby Digital Codec ID : A_AC3 Duration : 2 h 18 min Bit rate mode : Constant Bit rate : 640 kb/s Channel(s) : 6 channels Channel layout : L R C LFE Ls Rs Sampling rate : 48.0 kHz Frame rate : 31.250 FPS (1536 SPF) Compression mode : Lossy Stream size : 636 MiB (5%) Title : ViruseProject Language : Russian Service kind : Complete Main Default : No Forced : No Audio #6 ID : 7 Format : AC-3 Format/Info : Audio Coding 3 Commercial name : Dolby Digital Codec ID : A_AC3 Duration : 2 h 18 min Bit rate mode : Constant Bit rate : 448 kb/s Channel(s) : 6 channels Channel layout : L R C LFE Ls Rs Sampling rate : 48.0 kHz Frame rate : 31.250 FPS (1536 SPF) Compression mode : Lossy Stream size : 445 MiB (4%) Title : LeDoyen Language : Ukrainian Service kind : Complete Main Default : No Forced : No Audio #7 ID : 8 Format : E-AC-3 JOC Format/Info : Enhanced AC-3 with Joint Object Coding Commercial name : Dolby Digital Plus with Dolby Atmos Codec ID : A_EAC3 Duration : 2 h 18 min Bit rate mode : Constant Bit rate : 768 kb/s Channel(s) : 6 channels Channel layout : L R C LFE Ls Rs Sampling rate : 48.0 kHz Frame rate : 31.250 FPS (1536 SPF) Compression mode : Lossy Stream size : 763 MiB (6%) Title : English Language : English Service kind : Complete Main Default : No Forced : No Complexity index : 16 Number of dynamic objects : 15 Bed channel count : 1 channel Bed channel configuration : LFE Text #1 ID : 9 Format : UTF-8 Codec ID : S_TEXT/UTF8 Codec ID/Info : UTF-8 Plain Text Duration : 2 h 11 min Bit rate : 2 b/s Frame rate : 0.008 FPS Count of elements : 62 Stream size : 2.34 KiB (0%) Title : Russian (Forced) Language : Russian Default : Yes Forced : No Text #2 ID : 10 Format : UTF-8 Codec ID : S_TEXT/UTF8 Codec ID/Info : UTF-8 Plain Text Duration : 2 h 17 min Bit rate : 84 b/s Frame rate : 0.215 FPS Count of elements : 1776 Stream size : 84.9 KiB (0%) Title : Russian Language : Russian Default : No Forced : No Text #3 ID : 11 Format : UTF-8 Codec ID : S_TEXT/UTF8 Codec ID/Info : UTF-8 Plain Text Duration : 2 h 18 min Bit rate : 96 b/s Frame rate : 0.247 FPS Count of elements : 2046 Stream size : 97.7 KiB (0%) Title : Russian (SDH) Language : Russian Default : No Forced : No Text #4 ID : 12 Format : UTF-8 Codec ID : S_TEXT/UTF8 Codec ID/Info : UTF-8 Plain Text Duration : 2 h 10 min Bit rate : 56 b/s Frame rate : 0.219 FPS Count of elements : 1714 Stream size : 54.1 KiB (0%) Title : English Language : English Default : No Forced : No Text #5 ID : 13 Format : UTF-8 Codec ID : S_TEXT/UTF8 Codec ID/Info : UTF-8 Plain Text Duration : 2 h 15 min Bit rate : 65 b/s Frame rate : 0.254 FPS Count of elements : 2060 Stream size : 64.8 KiB (0%) Title : English (SDH) Language : English Default : No Forced : No Text #6 ID : 14 Format : UTF-8 Codec ID : S_TEXT/UTF8 Codec ID/Info : UTF-8 Plain Text Duration : 2 h 17 min Bit rate : 74 b/s Frame rate : 0.216 FPS Count of elements : 1776 Stream size : 75.3 KiB (0%) Title : Hebrew Language : Hebrew Default : No Forced : No Text #7 ID : 15 Format : UTF-8 Codec ID : S_TEXT/UTF8 Codec ID/Info : UTF-8 Plain Text Duration : 2 h 11 min Bit rate : 2 b/s Frame rate : 0.008 FPS Count of elements : 61 Stream size : 2.44 KiB (0%) Title : Ukrainian (Forced) Language : Ukrainian Default : No Forced : No Text #8 ID : 16 Format : UTF-8 Codec ID : S_TEXT/UTF8 Codec ID/Info : UTF-8 Plain Text Duration : 2 h 17 min Bit rate : 84 b/s Frame rate : 0.215 FPS Count of elements : 1776 Stream size : 85.5 KiB (0%) Title : Ukrainian Language : Ukrainian Default : No Forced : No Text #9 ID : 17 Format : UTF-8 Codec ID : S_TEXT/UTF8 Codec ID/Info : UTF-8 Plain Text Duration : 2 h 18 min Bit rate : 95 b/s Frame rate : 0.247 FPS Count of elements : 2046 Stream size : 97.1 KiB (0%) Title : Ukrainian (SDH) Language : Ukrainian Default : No Forced : No
[+] Скриншоты

Всего файлов в раздаче: 1 
Argylle.2024.1080p.AMZN.WEB-DL.H.264-EniaHD.mkv11.82 GB

Похожие раздачи по запросу - Аргайл
2024-03-25 magnet Аргайл: Супершпион / Argylle (2024) WEB-DL 2160p | 4K | HDR | Dolby Vision Profile 8 | D, P, P2 27.37 GB ↑ 0 ↓ 0
2024-03-23 magnet Аргайл: Супершпион / Argylle (2024) WEB-DL 720p от селезень | D 4.44 GB ↑ 0 ↓ 1
2024-03-23 magnet Аргайл: Супершпион / Argylle (2024) WEB-DL 2160p | 4K | SDR | D, P, P2 17.70 GB ↑ 0 ↓ 0
2024-03-23 magnet Аргайл: Супершпион / Argylle (2024) WEB-DLRip от toxics & селезень | D 2.18 GB ↑ 0 ↓ 0
2024-03-23 magnet Аргайл: Супершпион / Argylle (2024) WEB-DLRip от MegaPeer | D 1.46 GB ↑ 0 ↓ 0
2024-03-23 magnet Аргайл: Супершпион / Argylle (2024) WEB-DLRip-AVC от DoMiNo & селезень | D 2.14 GB ↑ 0 ↓ 0
2024-03-23 magnet Аргайл: Супершпион / Argylle (2024) WEB-DLRip 1080p от селезень | D 10.30 GB ↑ 0 ↓ 0

Комментарии


Зарегистрируйтесь чтобы добавить комментарий
Торрент клиент
byTorrent - программа для загрузки торрент-файлов.

Скачать byTorrent.exe (1,5 МБ)

Скачать byTorrent.zip (0,6 МБ)

Поддержи torrent.by
российских рублей
(300 российских рублей это 4$)

Обратная связь rss

End game ©